вход на сайт

Имя пользователя :
Пароль :

Восстановление пароля Регистрация
Биндюжник и король (2 части из 2) (Владимир Алеников, мюзикл, драма, комедия, 1990) [DVDRip, Не требуется]
Рейтинг:
(голосов: 1)



[img]{THEME}/images/logopost.png[/img]



Биндюжник и король (2 части из 2)

Год выпуска: 1990
Страна: СССР
Производство: Аквилон, Студия Горького, ТВК, Видеофильм
Жанр: мюзикл, драма, комедия,

Режиссёр: Владимир Алеников
В ролях: Армен Джигарханян, Зиновий Гердт, Раиса Недашковская, Ирина Розанова, Максим Леонидов, Андрей Ургант, Татьяна Васильева, Роман Карцев, Евгений Евстигнеев, Мария Иткина

Перевод: Не требуется
Субтитры: Отсутствуют

Описание:
Молдаванка — легендарный район дореволюционной Одессы, суматошно-беззаботный мир, до краев полный по-южному яркой жизнью. Здесь обитает пестрый неунывающий люд, а также гордость Молдаванки — обаятельный бандит Беня Крик по прозвищу Король, сын биндюжника Менделя Крика. Вся эта история начинается, когда Мендель решил оставить семью и уйти к молодой красавице Маруське, продав свою знаменитую на всю Одессу конюшню…


Дополнительно:
MediaInfo ▼Text
"1 часть" ▼Общее
Полное имя :J:Биндюжник и КорольБиндюжник и КорольBindyuzhnik.i.korol.1.of.2.avi
Формат :AVI
Размер :700 MiB
Продолжительность :01:20:36.880
Общий поток :1 215 Kbps
Программа кодирования :VirtualDubMod 1.4.13
Библиотека кодирования :VirtualDub build 14328/release

Видео
Идентификатор :0
Формат :MPEG-4 Visual
Параметр BVOP формата :1
Параметр Qpel формата :No
Параметр GMC формата :0
Параметр Matrix формата :Default (H.263)
Идентификатор кодека :DX50
Продолжительность :1h 20mn 36s 880ms
Битрейт :1 077 Kbps
Ширина :576 pixels
Высота :432 pixels
Соотношение сторон :1.333
Частота кадров :25.000 fps
Глубина цвета :8 bits
Цветовое пространство :YUV
Тип развертки :Progressive
Бит/(Пиксели*Кадры) :0.173
Размер потока :621 MiB (89%)
Библиотека кодирования :DivX503b830p

Аудио #1
Идентификатор :1
Формат :MPEG Audio
Идентификатор кодека :55
Продолжительность :01:20:36.472
Вид битрейта :Constant
Битрейт :128 Kbps
Канал(ы) :2 channels
Частота :44.1 KHz
Метод сжатия :Lossy
Размер потока :73.8 MiB (11%)

"2 часть" ▼Общее
Полное имя &nbs
e009a135fe96da06b8a3d7fcae1cd41c262d2630Биндюжник и король (2 части из 2) (Владимир Алеников, мюзикл, драма, комедия, 1990) [DVDRip, Не требуется] Биндюжник и король (2 части из 2) (Владимир Алеников, мюзикл, драма, комедия, 1990) [DVDRip, Не требуется] " />

Аплоадер: Админ, дата: 15-04-2013, 18:34, торрент скачан: 359 раз

Понравилась раздача? Посмотрите эти:
  • Дни хирурга Мишкина (3 части из 3) (Вадим Зобин, драма, 1967) [DVDRip, Не т ...
  • Люди и манекены (4 части из 4) (Виктор Храмов, Аркадий Райкин, комедия, 197 ...
  • Дон Сезар де Базан (2 части из 2) (Ян Фрид, мюзикл, комедия, 1989) [DVDRip, ...
  • Покровские ворота (2 части из 2) (Михаил Козаков, мюзикл, драма, мелодрама, ...
  • Балтийское небо (2 части из 2) (Владимир Венгеров, драма, военный, история, ...
  • Ночные забавы (2 части из 2. Реставрирован) (Владимир Краснопольский, Валер ...
  • Небесные ласточки (2 части из 2) (Леонид Квинихидзе, мюзикл, драма, комедия ...
  • Карнавал (2 части из 2) (Татьяна Лиознова, мюзикл, комедия, 1981) [DVDRip, ...
  • Степь (2 части из 2) (Сергей Бондарчук, драма, история, 1977) [DVDRip, Не т ...
  • Трест, который лопнул (3 части из 3) (Александр Павловский, мюзикл, комедия ...
  • Сильва (2 части из 2) (Ян Фрид, мюзикл, комедия, 1981) [DVDRip, Не требуетс ...
  • У меня есть лев (2 части из 2) (Константин Бромберг, драма, комедия, приклю ...
  • Ханума (2 части из 2) (Георгий Товстоногов, мюзикл, комедия, 1978) [DVDRip, ...
  • Приморский бульвар (2 части из 2) (Александр Полынников, мюзикл, комедия, 1 ...
  • Тихий Дон (3 части из 3) (Сергей Герасимов, драма, военный, 1957) [DVDRip, ...
  • Рок-н-ролл для принцесс (2 части из 2) (Радомир Василевский, Комедия, семей ...
  • Биндюжник и король (Владимир Алеников, мюзикл,драма,комедия,1990) [DVDRip, ...
  • Дядюшкин сон (2 части из2) (Александр Орлов, драма, комедия, 1981) [DVDRip, ...
  • Зверобой (2 части из 2) (Андрей Ростоцкий, приключения, 1990) [DVDRip, Не т ...
  • Каникулы Петрова и Васечкина, обыкновенные и невероятные (2 части из 2) (Вл ...
  • Информация
    Посетители, находящиеся в группе Гости, не могут оставлять комментарии к данной публикации.