вход на сайт

Имя пользователя :
Пароль :

Восстановление пароля Регистрация
Божья тварь (Галина Данелия-Юркова, комедия, 1991) [DVDRip, Не требуется]
Рейтинг:
(голосов: 1)



[img]{THEME}/images/logopost.png[/img]



Божья тварь

Год выпуска: 1991
Страна: СССР
Производство: Гала Рекордс, Глобус, Студия Горького
Жанр: комедия

Режиссёр: Галина Данелия-Юркова
В ролях: Сергей Шакуров, Зоя Александриди, Сергей Челобанов, Леонид Ярмольник, Даниил Кучменко, Ирина Шмелева, Анна Генисарецкая, Владимир Губанов, Юрий Звягинцев, Ольга Агеева

Перевод: Не требуется
Субтитры: Отсутствуют

Описание:
Художник-реставратор Алексей, отправляясь на день рождения к своей возлюбленной Марии, даже и предположить не мог, в какой переплет он попадет. И виной всему станет малолетняя воровка-сорвиголова по имени Шурочка.


Дополнительно:
MediaInfo ▼Text
Общее
Полное имя :K:Божья тварьozhya_tvar.avi
Формат :AVI
Размер :1.34 GiB
Продолжительность :01:16:04.800
Общий поток :2 527 Kbps
Программа кодирования :VirtualDubMod 1.5.10.2 (build 2540/release)
Библиотека кодирования :VirtualDubMod build 2540/release

Видео
Идентификатор :0
Формат :MPEG-4 Visual
Профиль формата :[email protected]
Параметр BVOP формата :2
Параметр Qpel формата :No
Параметр GMC формата :0
Параметр Matrix формата :Default (H.263)
Идентификатор кодека :XVID
Продолжительность :1h 16mn 4s 800ms
Битрейт :2 325 Kbps
Ширина :704 pixels
Высота :528 pixels
Соотношение сторон :1.333
Частота кадров :25.000 fps
Глубина цвета :8 bits
Подвыборка цветности :4:2:0
Цветовое пространство :YUV
Тип развертки :Progressive
Бит/(Пиксели*Кадры) :0.250
Размер потока :1.24 GiB (92%)
Библиотека кодирования :XviD0037

Аудио #1
Идентификатор :1
Формат :AC-3
Формат/Информация :Audio Coding 3
Идентификатор кодека :2000
Продолжительность :01:16:04.800
Вид битрейта :Constant
Битрейт :192 Kbps
Канал(ы) :2 channels
Расположение каналов :Front: L R
Частота :48.0 KHz
Битовая глубина :16 bits
Метод сжатия :Lossy
Размер потока :104 MiB (8%)



Тех. данные
22fffb84c9660aac74cdcbc3e2c1e915df89e14eБожья тварь (Галина Данелия-Юркова, комедия, 1991) [DVDRip, Не требуется] Божья тварь (Галина Данелия-Юркова, комедия, 1991) [DVDRip, Не требуется] " />

Аплоадер: Админ, дата: 15-04-2013, 18:19, торрент скачан: 359 раз

Понравилась раздача? Посмотрите эти:
  • Сережа (Георгий Данелия, Игорь Таланкин, драма, 1960) [DVDRip, Не требуется ...
  • Дама с собачкой (Иосиф Хейфиц, драма, мелодрама, 1959) [DVDRip, Не требуетс ...
  • Француз (Галина Данелия-Юркова, драма, комедия, 1988) [DVDRip, Не требуется ...
  • Совсем пропащий (Георгий Данелия, приключения, 1973) [DVDRip, Не требуется] ...
  • Афоня (Георгий Данелия, драма, мелодрама, комедия, 1975) [DVDRip, Не требуе ...
  • Завтрак на траве (Николай Александрович, детский, комедия, 1979) [DVDRip, Н ...
  • Осенний марафон (Георгий Данелия, драма, мелодрама, комедия, 1979) [DVDRip, ...
  • Ой, вы, гуси... (Лидия Боброва, Драма, 1991) [DVDRip, Не требуется]
  • Маленький гигант большого секса (Николай Досталь, Комедия, 1992) [DVDRip, Н ...
  • Левша (Сергей Овчаров, драма, комедия, 1986) [DVDRip, Не требуется]
  • Паспорт (Георгий Данелия, комедия, 1990) [DVDRip, Не требуется]
  • Печники (Виктор Храмов, драма, 1982) [DVDRip, Не требуется]
  • Игра на миллионы (Геннадий Байсак, комедия, криминал, приключения, 1991) [T ...
  • Небывальщина (Сергей Овчаров, комедия, 1983) [DVDRip, Не требуется]
  • Цареубийца (Карен Шахназаров, Драма, история, 1991) [DVDRip, Не требуется]
  • Тридцать три (Георгий Данелия, комедия, 1965) [DVDRip, Не требуется]
  • Шельменко-денщик (Андрей Тутышкин, мюзикл, комедия, 1971) [DVDRip, Не требу ...
  • Суета сует (Алла Сурикова, комедия, 1979) [DVDRip, Не требуется]
  • Путь к причалу (Георгий Данелия, драма, 1963) [DVDRip, Не требуется]
  • Орел и решка (Георгий Данелия, Комедия, 1995) [DVDRip, Оригинал]
  • Информация
    Посетители, находящиеся в группе Гости, не могут оставлять комментарии к данной публикации.