вход на сайт

Имя пользователя :
Пароль :

Восстановление пароля Регистрация
Бой под Соколом (Александр Разумный, военный, 1942) [DVDRip, Не требуется]
Рейтинг:
(голосов: 1)



[img]{THEME}/images/logopost.png[/img]



Бой под Соколом

Год выпуска: 1942
Страна: СССР
Производство: Союздетфильм
Жанр: военный

Режиссёр: Александр Разумный
В ролях: Николай Леонов, Михаил Белоусов, Алексей Таршин, Анатолий Игнатьев, Виктор Бойко

Перевод: Не требуется
Субтитры: Отсутствуют

Описание:
Герои фильма, тимуровцы, действуют в обстановке Великой Отечественной войны.
Информация о рейтинге на http://www.imdb.com/name/nm0713673 нет

Дополнительно:
MediaInfo ▼Text
Общее
Полное имя :L:Бой под СоколомБой под Соколом.avi
Формат :AVI
Размер :700 MiB
Продолжительность :00:51:13.960
Общий поток :1 909 Kbps
Программа кодирования :VirtualDubModRus 1.5.10.2 (build 2540/release)
Библиотека кодирования :VirtualDubMod build 2540/release

Видео
Идентификатор :0
Формат :MPEG-4 Visual
Профиль формата :Advanced [email protected]
Параметр BVOP формата :1
Параметр Qpel формата :No
Параметр GMC формата :0
Параметр Matrix формата :Default (H.263)
Идентификатор кодека :DX50
Продолжительность :51mn 13s 960ms
Битрейт :1 771 Kbps
Ширина :640 pixels
Высота :480 pixels
Соотношение сторон :1.333
Частота кадров :25.000 fps
Глубина цвета :8 bits
Подвыборка цветности :4:2:0
Цветовое пространство :YUV
Тип развертки :Progressive
Бит/(Пиксели*Кадры) :0.231
Размер потока :649 MiB (93%)
Библиотека кодирования :XviD0046

Аудио #1
Идентификатор :1
Формат :MPEG Audio
Идентификатор кодека :55
Продолжительность :00:51:13.960
Вид битрейта :Constant
Битрейт :128 Kbps
Канал(ы) :2 channels
Частота :48.0 KHz
Метод сжатия :Lossy
Размер потока :46.9 MiB (7%)



Тех. данные:
Качество:DVDRip
Продолжительность:00:51:10 час

Формат: AVI
Видео кодек: XviD
Аудио кодек: MPA1L3
Видео: 640 x 480 (4:3), 25.000 fps, 1 771 Kbps, 0.231 bit/pixel
Аудио : 48.0 KHz, , 2 channels (), 128 Kbps



0ca67b4111d273c8446bcb9734b9c207aa8b9315Бой под Соколом (Александр Разумный, военный, 1942) [DVDRip, Не требуется] Бой под Соколом (Александр Разумный, военный, 1942) [DVDRip, Не требуется] " />

Аплоадер: Админ, дата: 15-04-2013, 18:16, торрент скачан: 359 раз

Понравилась раздача? Посмотрите эти:
  • "Мерседес" уходит от погони (Юрий Ляшенко, военный, 1980) [DVDRip, Не требу ...
  • Летят журавли (Михаил Калатозов, драма, мелодрама, военный, 1957) [DVDRip, ...
  • Зимородок (Вячеслав Никифоров, военный, 1972) [DVDRip, Не требуется]
  • Шел четвертый год войны... (Георгий Николаенко, военный, 1983) [DVDRip, Не ...
  • Тайна горного подземелья (Лев Мирский, детский, приключения, 1975) [DVDRip, ...
  • Проверка на дорогах (Алексей Герман, драма, военный, 1971) [DVDRip, Не треб ...
  • Парень из нашего города (Александр Столпер, Борис Иванов, драма, военный, 1 ...
  • Завтрак на траве (Николай Александрович, детский, комедия, 1979) [DVDRip, Н ...
  • Друг мой, Колька!.. (Александр Митта, Алексей Салтыков, драма, 1961) [DVDRi ...
  • Комиссар (Александр Аскольдов, драма, военный, 1967) [DVDRip, Не требуется] ...
  • Повесть о «Неистовом» (Борис Бабочкин, драма, военный, 1947) [DVDRip, Перев ...
  • Родина зовет (Александр Мачерет, военный, 1936) [DVDRip, Не требуется]
  • Повесть о настоящем человеке (Александр Столпер, драма, военный, 1948) [DVD ...
  • Печники (Виктор Храмов, драма, 1982) [DVDRip, Не требуется]
  • Четвертый перископ (Виктор Эйсымонт, приключения, 1942) [DVDRip, Не требует ...
  • Славный малый (Борис Барнет, военный, 1943) [DVDRip, Не требуется]
  • Смелые люди (Константин Юдин, боевик, драма, военный, 1950) [DVDRip, Не тре ...
  • Тихий Дон (3 части из 3) (Сергей Герасимов, драма, военный, 1957) [DVDRip, ...
  • Подпольный обком действует (4 части из 4) (Анатолий Буковский, военный, 197 ...
  • Болотные солдаты (Александр Мачерет, драма, военный, 1938) [DVDRip, Не треб ...
  • Р.В.С. (Алексей Мороз, военный, 1977) [DVDRip, (2х)Оригинал (русский)]
  • Адмирал Нахимов (Всеволод Пудовкин, драма, военный, биография, история, 194 ...
  • Александр Пархоменко (Леонид Луков, военный, биография, история, 1942) [DVD ...
  • Суворов (Михаил Доллер, Всеволод Пудовкин, драма, военный, биография, истор ...
  • Котовский (Александр Файнциммер, военный, биография, история, 1942) [DVDRip ...
  • Информация
    Посетители, находящиеся в группе Гости, не могут оставлять комментарии к данной публикации.