вход на сайт

Имя пользователя :
Пароль :

Восстановление пароля Регистрация
Борец и клоун (Борис Барнет, Константин Юдин, драма, спорт, 1957) [DVDRip, Не требуется]
Рейтинг:
(голосов: 1)



[img]{THEME}/images/logopost.png[/img]



Борец и клоун

Год выпуска: 1957
Страна: СССР
Производство: Мосфильм
Жанр: драма, спорт

Режиссёр: Борис Барнет, Константин Юдин
В ролях: Станислав Чекан, Александр Михайлов, Юрий Медведев, Ия Арепина, Борис Петкер, Леонид Топчиев, Тамара Логинова, Георгий Вицин, Кюнна Игнатова, Степан Каюков

Перевод: Не требуется
Субтитры: Отсутствуют

Описание:
Фильм об одной из ярких страниц истории русского цирка. Прославленные артисты — борец Иван Поддубный и клоун-дрессировщик Анатолий Дуров — были всемирно знамениты и любимы народом. Но судьбы их полны драматических коллизий.


Дополнительно:
MediaInfo ▼Text
Общее
Полное имя :D:Борец и клоунBorec I Kloun.avi
Формат :AVI
Размер :1.37 GiB
Продолжительность :01:34:25.960
Общий поток :2 079 Kbps
Программа кодирования :VirtualDubModRus 1.5.10.2 (build 2542/release)
Библиотека кодирования :VirtualDubMod build 2542/release

Видео
Идентификатор :0
Формат :MPEG-4 Visual
Параметр BVOP формата :1
Параметр Qpel формата :No
Параметр GMC формата :0
Параметр Matrix формата :Default (H.263)
Идентификатор кодека :DX50
Продолжительность :1h 34mn 25s 960ms
Битрейт :1 877 Kbps
Ширина :688 pixels
Высота :512 pixels
Соотношение сторон :1.344
Частота кадров :25.000 fps
Глубина цвета :8 bits
Подвыборка цветности :4:2:0
Цветовое пространство :YUV
Тип развертки :Progressive
Бит/(Пиксели*Кадры) :0.213
Размер потока :1.24 GiB (90%)
Библиотека кодирования :DivX503b1307p

Аудио #1
Идентификатор :1
Формат :AC-3
Формат/Информация :Audio Coding 3
Идентификатор кодека :2000
Продолжительность :01:34:25.952
Вид битрейта :Constant
Битрейт :192 Kbps
Канал(ы) :2 channels
Расположение каналов :Front: L R
Частота :48.0 KHz
Битовая глубина :16 bits
Метод сжатия :Lossy
Размер потока :130 MiB (9%)



Тех. данные:
Качество:DVDRip
Продолжительность:01:34:20 час
&nb
ae2fb9fc05f670fc6ff4da67f3aa7f8542abaac2Борец и клоун (Борис Барнет, Константин Юдин, драма, спорт, 1957) [DVDRip, Не требуется] Борец и клоун (Борис Барнет, Константин Юдин, драма, спорт, 1957) [DVDRip, Не требуется] " />

Аплоадер: Админ, дата: 15-04-2013, 18:07, торрент скачан: 359 раз

Понравилась раздача? Посмотрите эти:
  • Вертикаль (Борис Дуров, Станислав Говорухин, приключения, 1966) [DVDRip, Не ...
  • На подмостках сцены (Константин Юдин, драма, комедия, 1956) [DVDRip, Не тре ...
  • Аленка (Борис Барнет, комедия, 1961) [DVDRip, Не требуется]
  • Человек, которому везло (Константин Ершов, драма, 1978) [DVDRip, Не требует ...
  • Летят журавли (Михаил Калатозов, драма, мелодрама, военный, 1957) [DVDRip, ...
  • Таинственная находка (Борис Бунеев, детский, приключения, 1954) [DVDRip, Не ...
  • Парень из нашего города (Александр Столпер, Борис Иванов, драма, военный, 1 ...
  • Оптимистическая трагедия (Самсон Самсонов, драма, военный, история, 1963) [ ...
  • Окраина // Последний табор (Борис Барнет, Моисей Голдблат, Евгений Шнейдер, ...
  • На графских развалинах (Владимир Скуйбин, приключения, семейный, 1957) [DVD ...
  • Рядом с нами (Адольф Бергункер, драма, 1957) [DVDRip, Не требуется]
  • Сотрудник ЧК (Борис Волчек, боевик, история, 1963) [DVDRip, Не требуется]
  • Славный малый (Борис Барнет, военный, 1943) [DVDRip, Не требуется]
  • Смелые люди (Константин Юдин, боевик, драма, военный, 1950) [DVDRip, Не тре ...
  • Полустанок (Борис Барнет, мелодрама, комедия, 1963) [DVDRip, Не требуется]
  • Близнецы (Константин Юдин, комедия, 1945) [TVRip, Перевод, Не требуется]
  • Шведская спичка (Константин Юдин, комедия, детектив, 1955) [DVDRip, Не треб ...
  • Мексиканец (Владимир Каплуновский, драма, 1955) [DVDRip, Не требуется]
  • Сердца четырех (Константин Юдин, мелодрама, комедия, 1941) [DVDRip, Не треб ...
  • К Черному морю (Андрей Тутышкин, мелодрама, комедия, 1957) [DVDRip, Не треб ...
  • Информация
    Посетители, находящиеся в группе Гости, не могут оставлять комментарии к данной публикации.