вход на сайт

Имя пользователя :
Пароль :

Восстановление пароля Регистрация
Будни и праздники Серафимы Глюкиной (2 части из 2) (Ростислав Горяев, драма, 1988) [DVDRip, Не требуется]
Рейтинг:
(голосов: 1)



[img]{THEME}/images/logopost.png[/img]



Будни и праздники Серафимы Глюкиной (2 части из 2)

Год выпуска: 1988
Страна: СССР
Производство: Свердловская киностудия
Жанр: драма

Режиссёр: Ростислав Горяев
В ролях: Алиса Фрейндлих, Николай Ерёменко мл., Вацлав Дворжецкий, Владимир Осипчук, Валентина Панина, Борис Мурашкин, Валерий Веселов, Наталья Фоменко, Нина Ургант, Светлана Селезнева

Перевод: Не требуется
Субтитры: Отсутствуют

Описание:
Серафима Глюкина — добрая, интеллигентная и очень гордая женщина. Ее отец подарил городу ценнейшую коллекцию музыкальных инструментов, а она ютится в коммунальной квартире. И в тот момент, когда героиня меньше всего этого ждала, к ней приходит настоящая любовь.


Дополнительно:
MediaInfo ▼Text
"1 часть" ▼Общее
Полное имя :K:Будни и праздники Серафимы ГлюкинойBudni i prazdniki.DVDRip1.avi
Формат :AVI
Размер :723 MiB
Продолжительность :01:08:09.168
Общий поток :1 483 Kbps
Программа кодирования :VirtualDubModRus 1.5.10.2 (build 2542/release)
Библиотека кодирования :VirtualDubMod build 2542/release

Видео
Идентификатор :0
Формат :MPEG-4 Visual
Параметр BVOP формата :1
Параметр Qpel формата :No
Параметр GMC формата :0
Параметр Matrix формата :Default (H.263)
Идентификатор кодека :DX50
Продолжительность :1h 8mn 9s 160ms
Битрейт :1 346 Kbps
Ширина :640 pixels
Высота :480 pixels
Соотношение сторон :1.333
Частота кадров :25.000 fps
Глубина цвета :8 bits
Подвыборка цветности :4:2:0
Цветовое пространство :YUV
Тип развертки :Progressive
Бит/(Пиксели*Кадры) :0.175
Размер потока :656 MiB (91%)
Библиотека кодирования :DivX503b2676p

Аудио #1
Идентификатор :1
Формат :MPEG Audio
Идентификатор кодека :55
Продолжительность :01:08:09.168
Вид битрейта :Constant
Битрейт :128 Kbps
Канал(ы) :2 channels
Частота :48.0 KHz
Метод сжатия :Lossy
Размер потока :62.4 MiB (9%)

"2 часть" ▼Общее
Полное имя :K:Будни и праздники Серафимы ГлюкинойBudni i prazdniki.DVDRip2
b95792b0c8835644cdb44e88513d42276126067bБудни и праздники Серафимы Глюкиной (2 части из 2) (Ростислав Горяев, драма, 1988) [DVDRip, Не требуется] Будни и праздники Серафимы Глюкиной (2 части из 2) (Ростислав Горяев, драма, 1988) [DVDRip, Не требуется] " />

Аплоадер: Админ, дата: 15-04-2013, 17:58, торрент скачан: 359 раз

Понравилась раздача? Посмотрите эти:
  • Дни хирурга Мишкина (3 части из 3) (Вадим Зобин, драма, 1967) [DVDRip, Не т ...
  • Ошибка резидента (2 части из 2) (Вениамин Дорман, детектив, 1968) [DVDRip, ...
  • Судьба резидента (2 части из 2) (Вениамин Дорман, детектив, приключения, 19 ...
  • Возвращение резидента (2 части из 2) (Вениамин Дорман, триллер, 1982) [DVDR ...
  • Мир дому твоему (2 части из 2) (Константин Райкин, Аркадий Райкин, Марк Орл ...
  • Месье Ленуар, который... (2 части из 2) (Александр Орлов, телеспектакль, др ...
  • Люди и манекены (4 части из 4) (Виктор Храмов, Аркадий Райкин, комедия, 197 ...
  • Дон Сезар де Базан (2 части из 2) (Ян Фрид, мюзикл, комедия, 1989) [DVDRip, ...
  • Вся королевская рать (3 части из 3) (Наум Ардашников, Александр Гуткович, д ...
  • Объяснение в любви (2 части из 2) (Илья Авербах, мелодрама, 1977) [DVDRip, ...
  • Карнавал (2 части из 2) (Татьяна Лиознова, мюзикл, комедия, 1981) [DVDRip, ...
  • Энергичные люди (2 части из 2) (Владимир Захаров, комедия, 1988) [DVDRip, Н ...
  • Степь (2 части из 2) (Сергей Бондарчук, драма, история, 1977) [DVDRip, Не т ...
  • Сибириада (4 части из 4) (Андрей Кончаловский, драма, военный, история, 197 ...
  • Ханума (2 части из 2) (Георгий Товстоногов, мюзикл, комедия, 1978) [DVDRip, ...
  • Приморский бульвар (2 части из 2) (Александр Полынников, мюзикл, комедия, 1 ...
  • Почти смешная история (2 части из 2) (Петр Фоменко, мелодрама, комедия, 197 ...
  • Председатель (2 части из 2) (Алексей Салтыков, драма, 1964) [DVDRip, Не тре ...
  • Тихий Дон (3 части из 3) (Сергей Герасимов, драма, военный, 1957) [DVDRip, ...
  • Подпольный обком действует (4 части из 4) (Анатолий Буковский, военный, 197 ...
  • В лесах под Ковелем (3 части из 3) (Юрий Тупицкий, военный, история, 1984) ...
  • Гений (2 части из 2) (Виктор Сергеев, Комедия, криминал, 1991) [DVDRip, Не ...
  • Дядюшкин сон (2 части из2) (Александр Орлов, драма, комедия, 1981) [DVDRip, ...
  • Неизвестный солдат (3 части из 3) (Григорий Аронов, Вадим Зобин, драма, 198 ...
  • Воскресенье, половина седьмого (4 части из 4) (Вадим Зобин, криминал, детек ...
  • Информация
    Посетители, находящиеся в группе Гости, не могут оставлять комментарии к данной публикации.