вход на сайт

Имя пользователя :
Пароль :

Восстановление пароля Регистрация
Было у отца три сына (2 части из 2) (Геннадий Иванов, мелодрама, 1981) [DVDRip, Не требуется]
Рейтинг:
(голосов: 1)



[img]{THEME}/images/logopost.png[/img]



Было у отца три сына (2 части из 2)

Год выпуска: 1981
Страна: СССР
Производство: Мосфильм
Жанр: мелодрама

Режиссёр: Геннадий Иванов
В ролях: Олег Ефремов, Ада Роговцева, Александр Соловьев, Александр Тимошкин, Владимир Шевельков, Ирина Малышева, Даниил Нетребин, Раиса Куркина, Всеволод Сафонов, Иван Рыжов

Перевод: Не требуется
Субтитры: Отсутствуют

Описание:
У отца, капитана торгового флота, было три сына : Кирилл — художник, Юрий — моряк, Герка — музыкант. Казалось бы, ничто не может помешать их дружбе. Но старший и средний братья влюблены в одну девушку — Светлану. Соперничество делает их врагами. Юрий не может простить измены, и между братьями происходит крупная ссора. Неожиданно на семью обрушивается несчастье — во время пожара на судне погибает их отец. Горе вновь сближает братьев.


Дополнительно:
MediaInfo ▼Text
1 часть ▼Общее
Полное имя :D:Было у отца три сынаBylo u ottsa tri synaBylo_u_ottsa_tri_syna_1981_part1.avi
Формат :AVI
Размер :764 MiB
Продолжительность :01:05:13.440
Общий поток :1 638 Kbps

Видео
Идентификатор :0
Формат :MPEG-4 Visual
Профиль формата :[email protected]
Параметр BVOP формата :Yes
Параметр Qpel формата :No
Параметр GMC формата :0
Параметр Matrix формата :Default (H.263)
Идентификатор кодека :XVID
Продолжительность :1h 5mn 13s 440ms
Битрейт :1 500 Kbps
Ширина :720 pixels
Высота :576 pixels
Соотношение сторон :1.250
Частота кадров :25.000 fps
Глубина цвета :8 bits
Цветовое пространство :YUV
Тип развертки :Progressive
Бит/(Пиксели*Кадры) :0.145
Размер потока :700 MiB (92%)

Аудио #1
Идентификатор :1
Формат :MPEG Audio
Идентификатор кодека :55
Продолжительность :01:05:13.378
Вид битрейта :Constant
Битрейт :128 Kbps
Канал(ы) :2 channels
Частота :44.1 KHz
Метод сжатия :Lossy
Размер потока :59.7 MiB (8%)

2 часть ▼Общее
Полное имя :D:Было у отца три сынаBylo u ottsa tri synaBylo_u_ottsa_tri_syna_1981_part2.avi
Формат &
ca09654575470eb94913080d190737c35e83f6ecБыло у отца три сына (2 части из 2) (Геннадий Иванов, мелодрама, 1981) [DVDRip, Не требуется] Было у отца три сына (2 части из 2) (Геннадий Иванов, мелодрама, 1981) [DVDRip, Не требуется] " />

Аплоадер: Админ, дата: 15-04-2013, 17:42, торрент скачан: 359 раз

Понравилась раздача? Посмотрите эти:
  • Василий и Василиса (Ирина Поплавская, драма, мелодрама, биография, 1981) [D ...
  • Если ты прав... (Юрий Егоров, мелодрама, 1963) [DVDRip, Не требуется]
  • Анна Каренина (2 части из 2) (Александр Зархи, драма, мелодрама, 1967) [DVD ...
  • Агония (2 части из 2) (Элем Климов, драма, биография, история, 1981) [DVDRi ...
  • Ошибка резидента (2 части из 2) (Вениамин Дорман, детектив, 1968) [DVDRip, ...
  • Отпуск за свой счет (2 части из 2) (Виктор Титов, мелодрама, комедия, 1981) ...
  • Месье Ленуар, который... (2 части из 2) (Александр Орлов, телеспектакль, др ...
  • Верность (Петр Тодоровский, мелодрама, военный, 1965) [DVDRip, Не требуется ...
  • Прощай, шпана замоскворецкая... (Александр Панкратов, драма, мелодрама, 198 ...
  • Поднятая целина (3 части из 3) (Александр Иванов, драма, 1959) [DVDRip, Не ...
  • Вся королевская рать (3 части из 3) (Наум Ардашников, Александр Гуткович, д ...
  • Звезда пленительного счастья (2 части из 2) (Владимир Мотыль, драма, мелодр ...
  • Объяснение в любви (2 части из 2) (Илья Авербах, мелодрама, 1977) [DVDRip, ...
  • Ночные забавы (2 части из 2. Реставрирован) (Владимир Краснопольский, Валер ...
  • Михайло Ломоносов (Александр Иванов, драма, история, 1955) [DVDRip, Не треб ...
  • Карнавал (2 части из 2) (Татьяна Лиознова, мюзикл, комедия, 1981) [DVDRip, ...
  • Повесть о человеческом сердце (3 части из 3) (Даниил Храбровицкий, мелодрам ...
  • Царь Иван Грозный (2 части из 2) (Геннадий Васильев, Драма, история, 1991) ...
  • Ханума (2 части из 2) (Георгий Товстоногов, мюзикл, комедия, 1978) [DVDRip, ...
  • Проданный смех (2 части из 2) (Леонид Нечаев, мюзикл, фэнтези, приключения, ...
  • Степанова памятка (Константин Ершов, фэнтези, 1976) [DVDRip, Не требуется]
  • Тихий Дон (3 части из 3) (Сергей Герасимов, драма, военный, 1957) [DVDRip, ...
  • Дядюшкин сон (2 части из2) (Александр Орлов, драма, комедия, 1981) [DVDRip, ...
  • Моонзунд (2 части из 2) (Александр Муратов, драма, мелодрама, военный, исто ...
  • Комбаты (2 части из 2) (Вячеслав Колегаев, военный, 1983) [DVDRip, Не требу ...
  • Информация
    Посетители, находящиеся в группе Гости, не могут оставлять комментарии к данной публикации.