вход на сайт

Имя пользователя :
Пароль :

Восстановление пароля Регистрация
В небе «ночные ведьмы» (Евгения Жигуленко, военный, 1981) [DVDRip, Не требуется]
Рейтинг:
(голосов: 1)



[img]{THEME}/images/logopost.png[/img]



В небе «ночные ведьмы»

Год выпуска: 1981
Страна: СССР
Производство: Студия Горького
Жанр: военный

Режиссёр: Евгения Жигуленко
В ролях: Валентина Грушина, Яна Друзь, Дмитрий Замулин, Нина Меньшикова, Валерия Заклунная, Татьяна Чернопятова, Елена Астафьева, Александра Свиридова, Сергей Мартынов, Додо Чоговадзе

Перевод: Не требуется
Субтитры: Отсутствуют

Описание:
Этот фильм о событиях второй мировой войны. «Ночными ведьмами» называли бесстрашных советских летчиц фашисты. Они воевали на «ночных» бомбардировщиках ПО-2. Для девушек это прозвище было самой высшей оценкой их вклада в победу.


Дополнительно:
MediaInfo ▼Text
Общее
Полное имя :J:В небе ночные ведьмыV nebe Nochnie ved`my.DVDRip.avi
Формат :AVI
Размер :700 MiB
Продолжительность :01:15:52.440
Общий поток :1 289 Kbps
Программа кодирования :VirtualDubModRus 1.5.10.2 (build 2542/release)
Библиотека кодирования :VirtualDubMod build 2542/release

Видео
Идентификатор :0
Формат :MPEG-4 Visual
Параметр BVOP формата :1
Параметр Qpel формата :No
Параметр GMC формата :0
Параметр Matrix формата :Default (H.263)
Идентификатор кодека :DX50
Продолжительность :1h 15mn 52s 440ms
Битрейт :1 151 Kbps
Ширина :640 pixels
Высота :480 pixels
Соотношение сторон :1.333
Частота кадров :25.000 fps
Глубина цвета :8 bits
Подвыборка цветности :4:2:0
Цветовое пространство :YUV
Тип развертки :Progressive
Бит/(Пиксели*Кадры) :0.150
Размер потока :625 MiB (89%)
Библиотека кодирования :DivX503b2676p

Аудио #1
Идентификатор :1
Формат :MPEG Audio
Идентификатор кодека :55
Продолжительность :01:15:52.440
Вид битрейта :Constant
Битрейт :128 Kbps
Канал(ы) :2 channels
Частота :48.0 KHz
Метод сжатия :Lossy
Размер потока :69.5 MiB (10%)



Тех. данные:
Качество:DVDRip
Продолжительность:01:15:50 час

Формат: AVI
Видео кодек: DivX
Аудио кодек: MPA1L3
Видео: 640 x 480 (4:3), 25.000 fps, 1 151 Kbps, 0.150 bit/pixel
Аудио : 48.0 KHz, , 2 channel
6f08339349f23ac9d3d911e79ab43bf2fba1abcfВ небе «ночные ведьмы» (Евгения Жигуленко, военный, 1981) [DVDRip, Не требуется] В небе «ночные ведьмы» (Евгения Жигуленко, военный, 1981) [DVDRip, Не требуется] " />

Аплоадер: Админ, дата: 14-04-2013, 18:06, торрент скачан: 359 раз

Понравилась раздача? Посмотрите эти:
  • Жаворонок (Никита Курихин, Леонид Менакер, драма, военный, 1964) [DVDRip, Н ...
  • Ночные ласточки (Ночные ведьмы) // Эпизоды с 1 по 8 (из 8) (Боевик, мелодра ...
  • Василий и Василиса (Ирина Поплавская, драма, мелодрама, биография, 1981) [D ...
  • Бой под Соколом (Александр Разумный, военный, 1942) [DVDRip, Не требуется]
  • 34-й скорый (Андрей Малюков, боевик, драма, 1981) [DVDRip, Не требуется]
  • Зимородок (Вячеслав Никифоров, военный, 1972) [DVDRip, Не требуется]
  • Вы чье, старичье? (Иосиф Хейфиц, драма, 1988) [DVDRip, Не требуется]
  • Эзоп (Олег Рябоконь, драма, история, 1981) [DVDRip, Не требуется]
  • Цыганское счастье (Сергей Никоненко, драма, 1981) [DVDRip, Не требуется]
  • Путь в "Сатурн" (Виллен Азаров, военный, 1967) [DVDRip, Не требуется]
  • Балтийское небо (2 части из 2) (Владимир Венгеров, драма, военный, история, ...
  • Оптимистическая трагедия (Самсон Самсонов, драма, военный, история, 1963) [ ...
  • Комиссар (Александр Аскольдов, драма, военный, 1967) [DVDRip, Не требуется] ...
  • Карнавал (2 части из 2) (Татьяна Лиознова, мюзикл, комедия, 1981) [DVDRip, ...
  • Родина зовет (Александр Мачерет, военный, 1936) [DVDRip, Не требуется]
  • Красная площадь (Василий Ордынский, драма, военный, 1971) [DVDRip, Не требу ...
  • Тихий Дон (3 части из 3) (Сергей Герасимов, драма, военный, 1957) [DVDRip, ...
  • Подпольный обком действует (4 части из 4) (Анатолий Буковский, военный, 197 ...
  • В лесах под Ковелем (3 части из 3) (Юрий Тупицкий, военный, история, 1984) ...
  • В небе «Ночные ведьмы» (Е.Жигуленко, военный, 1981) [DVDRip, оригинал]
  • Болотные солдаты (Александр Мачерет, драма, военный, 1938) [DVDRip, Не треб ...
  • Дядюшкин сон (2 части из2) (Александр Орлов, драма, комедия, 1981) [DVDRip, ...
  • Р.В.С. (Алексей Мороз, военный, 1977) [DVDRip, (2х)Оригинал (русский)]
  • Моонзунд (2 части из 2) (Александр Муратов, драма, мелодрама, военный, исто ...
  • Карантин (Илья Фрэз, комедия, 1983) [DVDRip, Не требуется]
  • Информация
    Посетители, находящиеся в группе Гости, не могут оставлять комментарии к данной публикации.