вход на сайт

Имя пользователя :
Пароль :

Восстановление пароля Регистрация
Вас вызывает Таймыр (Алексей Коренев, комедия, 1970) [DVDRip, Не требуется]
Рейтинг:
(голосов: 1)



[img]{THEME}/images/logopost.png[/img]



Вас вызывает Таймыр

Год выпуска: 1970
Страна: СССР
Производство: Гостелерадио, Мосфильм
Жанр: комедия

Режиссёр: Алексей Коренев
В ролях: Юрий Кузьменков, Евгений Стеблов, Евгений Весник, Павел Павленко, Елена Коренева, Светлана Старикова, Зиновий Гердт, Инна Макарова, Валентина Талызина, Екатерина Васильева

Перевод: Не требуется
Субтитры: Отсутствуют

Описание:
В гостиничном номере проживают директор филармонии, геолог, влюбленный юноша, дедушка-пчеловод и кто-то еще. Немудрено, что даже при благожелательном отношении друг к другу между жильцами происходят всевозможные несуразности…


Дополнительно:
MediaInfo ▼Text
Общее
Полное имя :J:Вас вызывает ТаймырВас вызывает Таймыр.avi
Формат :AVI
Размер :696 MiB
Продолжительность :01:25:26.920
Общий поток :1 138 Kbps
Программа кодирования :VirtualDubMod 1.5.10.2 (build 2540/release)
Библиотека кодирования :VirtualDubMod build 2540/release

Видео
Идентификатор :0
Формат :MPEG-4 Visual
Профиль формата :Advanced [email protected]
Параметр BVOP формата :1
Параметр Qpel формата :No
Параметр GMC формата :0
Параметр Matrix формата :Custom
Идентификатор кодека :XVID
Продолжительность :1h 25mn 26s 920ms
Битрейт :1 017 Kbps
Ширина :704 pixels
Высота :528 pixels
Соотношение сторон :1.333
Частота кадров :25.000 fps
Глубина цвета :8 bits
Подвыборка цветности :4:2:0
Цветовое пространство :YUV
Тип развертки :Progressive
Бит/(Пиксели*Кадры) :0.109
Размер потока :621 MiB (89%)
Библиотека кодирования :XviD0050

Аудио #1
Идентификатор :1
Формат :MPEG Audio
Идентификатор кодека :55
Продолжительность :01:25:26.920
Вид битрейта :Constant
Битрейт :112 Kbps
Канал(ы) :2 channels
Частота :44.1 KHz
Метод сжатия :Lossy
Размер потока :68.5 MiB (10%)



Тех. данные:
Качество:DVDRip
Продолжительность:01:25:20 час

Формат: AVI
Видео кодек: XviD
Аудио кодек: MPA1L3
Видео: 704 x 528 (4:3), 25.000 fps, 1 01
bd2db1e75596eb4fce2a1aa3bc99a894b6a51c66Вас вызывает Таймыр (Алексей Коренев, комедия, 1970) [DVDRip, Не требуется] Вас вызывает Таймыр (Алексей Коренев, комедия, 1970) [DVDRip, Не требуется] " />

Аплоадер: Админ, дата: 14-04-2013, 17:59, торрент скачан: 359 раз

Понравилась раздача? Посмотрите эти:
  • Случай с Полыниным (Алексей Сахаров, драма, военный, 1970) [DVDRip, Не треб ...
  • Бой под Соколом (Александр Разумный, военный, 1942) [DVDRip, Не требуется]
  • Божья тварь (Галина Данелия-Юркова, комедия, 1991) [DVDRip, Не требуется]
  • Аленка (Борис Барнет, комедия, 1961) [DVDRip, Не требуется]
  • По Руси (Фёдор Филиппов, биография, 1968) [DVDRip, Не требуется]
  • Начало (Глеб Панфилов, мелодрама, комедия, 1970) [DVDRip, Не требуется]
  • Зеленые цепочки (Григорий Аронов, приключения, 1970) [DVDRip, Не требуется] ...
  • Девушка джигит (Павел Боголюбов, комедия, 1955) [DVDRip, Не требуется]
  • Два дня чудес (Лев Мирский, комедия, 1970) [DVDRip, Не требуется]
  • Три дня в Москве (2 части из 2) (Алексей Коренев, комедия, 1974) [DVDRip, Н ...
  • Тачанка с Юга (Евгений Шерстобитов, приключения, 1977) [DVDRip, Не требуетс ...
  • Бабье царство (Алексей Салтыков, драма, 1967) [DVDRip, Не требуется]
  • Зигзаг удачи (Эльдар Рязанов, комедия, 1968) [DVDRip, Не требуется]
  • Завтрак на траве (Николай Александрович, детский, комедия, 1979) [DVDRip, Н ...
  • Опекун (Эдгар Ходжикян, Альберт С. Мкртчян, комедия, 1970) [DVDRip, Не треб ...
  • Ой, вы, гуси... (Лидия Боброва, Драма, 1991) [DVDRip, Не требуется]
  • Чудный характер (Константин Воинов, драма, 1970) [DVDRip, Не требуется]
  • Солёный пёс (Николай Кошелев, драма, комедия, 1973) [DVDRip, Не требуется]
  • Печники (Виктор Храмов, драма, 1982) [DVDRip, Не требуется]
  • Небывальщина (Сергей Овчаров, комедия, 1983) [DVDRip, Не требуется]
  • Карусель (Михаил Швейцер, комедия, 1970) [DVDRip, Не требуется]
  • Шельменко-денщик (Андрей Тутышкин, мюзикл, комедия, 1971) [DVDRip, Не требу ...
  • Я вас любил... (Илья Фрэз, мелодрама, комедия, 1967) [DVDRip, Не требуется] ...
  • Приключения желтого чемоданчика (Илья Фрэз, комедия, семейный, 1970) [DVDRi ...
  • При исполнении служебных обязанностей (Илья Гурин, фантастика, драма, 1963) ...
  • Информация
    Посетители, находящиеся в группе Гости, не могут оставлять комментарии к данной публикации.