вход на сайт

Имя пользователя :
Пароль :

Восстановление пароля Регистрация
Дни хирурга Мишкина (3 части из 3) (Вадим Зобин, драма, 1967) [DVDRip, Не требуется]
Рейтинг:
(голосов: 1)



[img]{THEME}/images/logopost.png[/img]



Дни хирурга Мишкина (3 части из 3)

Год выпуска: 1967
Страна: СССР
Производство: ТО Экран
Жанр: драма

Режиссёр: Вадим Зобин
В ролях: Олег Ефремов, Жанна Болотова, Анатолий Ромашин, Евгений Евстигнеев, Галина Польских, Иннокентий Смоктуновский, Ролан Быков, Елена Санаева, Нина Гребешкова, Борис Токарев

Перевод: Не требуется
Субтитры: Отсутствуют

Описание:
Рассказ о хирурге районной больницы, беспредельно преданном своей професии.


Дополнительно:
MediaInfo ▼Text
"1 часть" ▼Общее
Полное имя :K:Дни хирурга МишкинаDni hirurga MishkinaДни хирурга Мишкина (1-3).avi
Формат :AVI
Размер :574 MiB
Продолжительность :01:10:34.840
Общий поток :1 137 Kbps
Программа кодирования :VirtualDubModRus 1.5.10.2 (build 2542/release)
Библиотека кодирования :VirtualDubMod build 2542/release

Видео
Идентификатор :0
Формат :MPEG-4 Visual
Параметр BVOP формата :No
Параметр Qpel формата :No
Параметр GMC формата :0
Параметр Matrix формата :Default (H.263)
Идентификатор кодека :DX50
Продолжительность :1h 10mn 34s 840ms
Битрейт :1 000 Kbps
Ширина :592 pixels
Высота :448 pixels
Соотношение сторон :1.321
Частота кадров :25.000 fps
Глубина цвета :8 bits
Подвыборка цветности :4:2:0
Цветовое пространство :YUV
Тип развертки :Progressive
Бит/(Пиксели*Кадры) :0.151
Размер потока :505 MiB (88%)
Библиотека кодирования :DivX503b1328

Аудио #1
Идентификатор :1
Формат :MPEG Audio
Идентификатор кодека :55
Продолжительность :01:10:34.728
Вид битрейта :Constant
Битрейт :128 Kbps
Канал(ы) :2 channels
Частота :48.0 KHz
Метод сжатия :Lossy
Размер потока :64.6 MiB (11%)

"2 часть" ▼Общее
Полное имя :K:Дни хирурга МишкинаDni hirurga MishkinaДни хирурга Мишкина (2-3).avi
Формат :AVI
Размер :539 MiB
Продолжительность 
8f441909b7668eabf38342ddcf49f6803594c2d0Дни хирурга Мишкина (3 части из 3) (Вадим Зобин, драма, 1967) [DVDRip, Не требуется] Дни хирурга Мишкина (3 части из 3) (Вадим Зобин, драма, 1967) [DVDRip, Не требуется] " />

Аплоадер: Админ, дата: 22-04-2013, 16:25, торрент скачан: 359 раз

Понравилась раздача? Посмотрите эти:
  • Будни и праздники Серафимы Глюкиной (2 части из 2) (Ростислав Горяев, драма ...
  • Анна Каренина (2 части из 2) (Александр Зархи, драма, мелодрама, 1967) [DVD ...
  • Ошибка резидента (2 части из 2) (Вениамин Дорман, детектив, 1968) [DVDRip, ...
  • Судьба резидента (2 части из 2) (Вениамин Дорман, детектив, приключения, 19 ...
  • Возвращение резидента (2 части из 2) (Вениамин Дорман, триллер, 1982) [DVDR ...
  • Мир дому твоему (2 части из 2) (Константин Райкин, Аркадий Райкин, Марк Орл ...
  • Месье Ленуар, который... (2 части из 2) (Александр Орлов, телеспектакль, др ...
  • Конец "Сатурна" (Виллен Азаров, Мосфильм, 1967) [DVDRip, Не требуется]
  • Балтийское небо (2 части из 2) (Владимир Венгеров, драма, военный, история, ...
  • Вся королевская рать (3 части из 3) (Наум Ардашников, Александр Гуткович, д ...
  • Операция «Трест» (4 части из 4) (Сергей Колосов, приключения, история, 1967 ...
  • Комиссар (Александр Аскольдов, драма, военный, 1967) [DVDRip, Не требуется] ...
  • Комедия ошибок (2 части из 2) (Вадим Гаузнер, комедия, 1978) [DVDRip, Не тр ...
  • Морской волк (4 части из 4) (Игорь Апасян, драма, мелодрама, приключения, 1 ...
  • Степь (2 части из 2) (Сергей Бондарчук, драма, история, 1977) [DVDRip, Не т ...
  • Чучело (2 части из 2) (Ролан Быков, Аркадий Хайт, драма, 1983) [DVDRip, Не ...
  • Ханума (2 части из 2) (Георгий Товстоногов, мюзикл, комедия, 1978) [DVDRip, ...
  • Председатель (2 части из 2) (Алексей Салтыков, драма, 1964) [DVDRip, Не тре ...
  • Тихий Дон (3 части из 3) (Сергей Герасимов, драма, военный, 1957) [DVDRip, ...
  • Подпольный обком действует (4 части из 4) (Анатолий Буковский, военный, 197 ...
  • В лесах под Ковелем (3 части из 3) (Юрий Тупицкий, военный, история, 1984) ...
  • Гений (2 части из 2) (Виктор Сергеев, Комедия, криминал, 1991) [DVDRip, Не ...
  • Дядюшкин сон (2 части из2) (Александр Орлов, драма, комедия, 1981) [DVDRip, ...
  • Неизвестный солдат (3 части из 3) (Григорий Аронов, Вадим Зобин, драма, 198 ...
  • Воскресенье, половина седьмого (4 части из 4) (Вадим Зобин, криминал, детек ...
  • Информация
    Посетители, находящиеся в группе Гости, не могут оставлять комментарии к данной публикации.