вход на сайт

Имя пользователя :
Пароль :

Восстановление пароля Регистрация
Если ты прав... (Юрий Егоров, мелодрама, 1963) [DVDRip, Не требуется]
Рейтинг:
(голосов: 1)



[img]{THEME}/images/logopost.png[/img]



Если ты прав...

Год выпуска: 1963
Страна: СССР
Производство: Студия Горького
Жанр: мелодрама

Режиссёр: Юрий Егоров
В ролях: Станислав Любшин, Жанна Болотова, Галина Соколова, Григорий Лямпе, Геннадий Сайфулин, Иван Лапиков, Олег Видов, Виктор Уральский, Лидия Королёва, Иван Каширин

Перевод: Не требуется
Субтитры: Отсутствуют

Описание:
Галя, потерявшая во время войны родителей, воспитывалась в детском доме, а когда реабилитировали ее дедушку, они стали жить вдвоем. Однажды в квартире поломался телефон, и Галя в поисках мастера обратилась в службу быта. Так в их квартире появился Алексей.


Дополнительно:
MediaInfo ▼Text
Общее
Полное имя :L:Если ты правЕсли ты прав....avi
Формат :AVI
Размер :901 MiB
Продолжительность :01:18:40.576
Общий поток :1 602 Kbps
Библиотека кодирования :VirtualDub build 32706/release

Видео
Идентификатор :0
Формат :MPEG-4 Visual
Параметр BVOP формата :1
Параметр Qpel формата :No
Параметр GMC формата :0
Параметр Matrix формата :Default (H.263)
Идентификатор кодека :DX50
Продолжительность :1h 18mn 40s 560ms
Битрейт :1 400 Kbps
Ширина :688 pixels
Высота :512 pixels
Соотношение сторон :1.344
Частота кадров :25.000 fps
Глубина цвета :8 bits
Подвыборка цветности :4:2:0
Цветовое пространство :YUV
Тип развертки :Progressive
Бит/(Пиксели*Кадры) :0.159
Размер потока :788 MiB (87%)
Библиотека кодирования :DivX503b2816p

Аудио #1
Идентификатор :1
Формат :AC-3
Формат/Информация :Audio Coding 3
Идентификатор кодека :2000
Продолжительность :01:18:40.576
Вид битрейта :Constant
Битрейт :192 Kbps
Канал(ы) :2 channels
Расположение каналов :Front: L R
Частота :48.0 KHz
Битовая глубина :16 bits
Метод сжатия :Lossy
Размер потока :108 MiB (12%)



Тех. данные:
Качество:DVDRip
Продолжительность:01:18:46 час

Формат: AVI
Видео кодек: DivX
Аудио кодек: AC3
Видео:
38149382d10b1cebb9d87b42808236cfd5db1de6Если ты прав... (Юрий Егоров, мелодрама, 1963) [DVDRip, Не требуется] Если ты прав... (Юрий Егоров, мелодрама, 1963) [DVDRip, Не требуется] " />

Аплоадер: Админ, дата: 22-04-2013, 16:16, торрент скачан: 359 раз

Понравилась раздача? Посмотрите эти:
  • "Мерседес" уходит от погони (Юрий Ляшенко, военный, 1980) [DVDRip, Не требу ...
  • Начало (Глеб Панфилов, мелодрама, комедия, 1970) [DVDRip, Не требуется]
  • Дама с собачкой (Иосиф Хейфиц, драма, мелодрама, 1959) [DVDRip, Не требуетс ...
  • Штрафной удар (Вениамин Дорман, комедия, спорт, 1963) [DVDRip, Не требуется ...
  • Ох, уж эта Настя! (Юрий Победоносцев, семейный, 1972) [DVDRip, Не требуется ...
  • Иван да Марья (Борис Рыцарев, фэнтези, мелодрама, комедия, семейный, музыка ...
  • Оптимистическая трагедия (Самсон Самсонов, драма, военный, история, 1963) [ ...
  • Ой, вы, гуси... (Лидия Боброва, Драма, 1991) [DVDRip, Не требуется]
  • Легенда о княгине Ольге (Юрий Ильенко, драма, история, 1983) [DVDRip, Не тр ...
  • Фантазеры (Исаак Магитон, И. Сафарова, детский, 1965) [DVDRip, Не требуется ...
  • Карусель (Михаил Швейцер, комедия, 1970) [DVDRip, Не требуется]
  • Сотрудник ЧК (Борис Волчек, боевик, история, 1963) [DVDRip, Не требуется]
  • Морозко // Королевство кривых зеркал // Финист – Ясный сокол (Александр Роу ...
  • Пропало лето (Ролан Быков, Никита Орлов, комедия, семейный, 1963) [DVDRip, ...
  • Путь к причалу (Георгий Данелия, драма, 1963) [DVDRip, Не требуется]
  • При исполнении служебных обязанностей (Илья Гурин, фантастика, драма, 1963) ...
  • В лесах под Ковелем (3 части из 3) (Юрий Тупицкий, военный, история, 1984) ...
  • Полустанок (Борис Барнет, мелодрама, комедия, 1963) [DVDRip, Не требуется]
  • Хозяин и слуга (Дмитрий Кесаянц, короткометражка, комедия, 1963) [DVDRip, Н ...
  • Король манежа (Юрий Чулюкин, семейный, 1970) [DVDRip, Не требуется]
  • Большой «Фитиль» (Мери Анджапаридзе, Эдуард Бочаров, Софья Милькина, комеди ...
  • Фонтан (Юрий Мамин, комедия, 1989) [DVDRip, Не требуется]
  • Каин XVIII (Надежда Кошеверова, Михаил Шапиро, фэнтези, мелодрама, приключе ...
  • В добрый час! (Виктор Эйсымонт, драма, мелодрама, 1956) [DVDRip, Не требует ...
  • За облаками – небо (Юрий Егоров, драма, 1973) [DVDRip, Не требуется]
  • Информация
    Посетители, находящиеся в группе Гости, не могут оставлять комментарии к данной публикации.