вход на сайт

Имя пользователя :
Пароль :

Восстановление пароля Регистрация
Журавушка (Николай Москаленко, драма, мелодрама, 1968) [DVDRip, Не требуется]
Рейтинг:
(голосов: 1)



[img]{THEME}/images/logopost.png[/img]



Журавушка

Год выпуска: 1968
Страна: СССР
Производство: Мосфильм
Жанр: драма, мелодрама

Режиссёр: Николай Москаленко
В ролях: Людмила Чурсина, Нонна Мордюкова, Татьяна Пельтцер, Римма Маркова, Армен Джигарханян, Николай Гриценко, Георгий Жжёнов, Евгений Шутов, Алексей Карпушкин, Инга Будкевич

Перевод: Не требуется
Субтитры: Отсутствуют

Описание:
О судьбе русской женщины, вынесшей все тяготы войны и послевоенной жизни. Возвратились в родную деревню те немногие, кто уцелел на фронте. Но мужу Марфы, которого она ждала столько лет, уже не вернуться. Марфа, красивая и гордая женщина, остается верной своей единственной любви…


Дополнительно:
MediaInfo ▼Text
Общее
Полное имя :L:Журавушкаhuravuschka.avi
Формат :AVI
Размер :1.08 GiB
Продолжительность :01:20:12.288
Общий поток :1 932 Kbps
Программа кодирования :VirtualDubModRus 1.5.10.2 (build 2542/release)
Библиотека кодирования :VirtualDubMod build 2542/release

Видео
Идентификатор :0
Формат :MPEG-4 Visual
Параметр BVOP формата :1
Параметр Qpel формата :No
Параметр GMC формата :0
Параметр Matrix формата :Default (H.263)
Идентификатор кодека :DX50
Продолжительность :1h 20mn 12s 280ms
Битрейт :1 731 Kbps
Ширина :720 pixels
Высота :320 pixels
Соотношение сторон :2.250
Частота кадров :25.000 fps
Глубина цвета :8 bits
Подвыборка цветности :4:2:0
Цветовое пространство :YUV
Тип развертки :Progressive
Бит/(Пиксели*Кадры) :0.300
Размер потока :993 MiB (90%)
Библиотека кодирования :DivX503b1307p

Аудио #1
Идентификатор :1
Формат :AC-3
Формат/Информация :Audio Coding 3
Идентификатор кодека :2000
Продолжительность :01:20:12.288
Вид битрейта :Constant
Битрейт :192 Kbps
Канал(ы) :2 channels
Расположение каналов :Front: L R
Частота :48.0 KHz
Битовая глубина :16 bits
Метод сжатия :Lossy
Размер потока :110 MiB (10%)



Тех. данные:
Качество:DV
5f259459d787aa612c35f3f13f2bf30ad88226c2Журавушка (Николай Москаленко, драма, мелодрама, 1968) [DVDRip, Не требуется] Журавушка (Николай Москаленко, драма, мелодрама, 1968) [DVDRip, Не требуется] " />

Аплоадер: Админ, дата: 22-04-2013, 16:14, торрент скачан: 359 раз

Понравилась раздача? Посмотрите эти:
  • Подранки (Николай Губенко, драма, 1976) [DVDRip, Не требуется]
  • Ошибка резидента (2 части из 2) (Вениамин Дорман, детектив, 1968) [DVDRip, ...
  • Нейтральные воды (Владимир Беренштейн, драма, 1968) [DVDRip, Не требуется]
  • Из жизни отдыхающих (Николай Губенко, драма, мелодрама, 1980) [DVDRip, Не т ...
  • Дама с собачкой (Иосиф Хейфиц, драма, мелодрама, 1959) [DVDRip, Не требуетс ...
  • Убийство на улице Данте (Михаил Ромм, драма, 1956) [DVDRip, Не требуется]
  • Старшина (Николай Кошелев, драма, 1979) [DVDRip, Не требуется]
  • Путевка в Жизнь (Николай Экк, драма, 1931) [DVDRip, Не требуется]
  • Конец "Сатурна" (Виллен Азаров, Мосфильм, 1967) [DVDRip, Не требуется]
  • Последняя жертва (Петр Тодоровский, драма, мелодрама, 1975) [DVDRip, Не тре ...
  • Деревенский детектив (Иван Лукинский, комедия, криминал, 1968) [DVDRip, Не ...
  • Комиссар (Александр Аскольдов, драма, военный, 1967) [DVDRip, Не требуется] ...
  • Порожний рейс (Владимир Венгеров, драма, 1962) [DVDRip, Не требуется]
  • Чайка (Юлий Карасик, драма, 1972) [DVDRip, Не требуется]
  • Трембита (Олег Николаевский, мюзикл, мелодрама, комедия, 1968) [DVDRip, Не ...
  • Служили два товарища (Евгений Карелов, драма, комедия, военный, 1968) [DVDR ...
  • Журавушка (Татьяна Пельтцер, Нонна Мордюкова, мелодрама, 1968) [DVDRip, не ...
  • Донская повесть (Владимир Фетин, драма, 1964) [DVDRip, Не требуется]
  • Дядюшкин сон (Константин Воинов, драма, 1966) [DVDRip, Не требуется]
  • В добрый час! (Виктор Эйсымонт, драма, мелодрама, 1956) [DVDRip, Не требует ...
  • Информация
    Посетители, находящиеся в группе Гости, не могут оставлять комментарии к данной публикации.