вход на сайт

Имя пользователя :
Пароль :

Восстановление пароля Регистрация
Золотые яблоки (Фёдор Филиппов, семейный, 1954) [DVDRip, Не требуется]
Рейтинг:
(голосов: 1)



[img]{THEME}/images/logopost.png[/img]



Золотые яблоки

Год выпуска: 1954
Страна: СССР
Производство: Мосфильм
Жанр: семейный

Режиссёр: Фёдор Филиппов
В ролях: Ялкап Атаджанов, Тенгиз Болквадзе, Игорь Бристоль, Михаил Чубинидзе, Иван Кузнецов, Лидия Никонова, Владимир Сальников, Михаил Трояновский, Евгений Агуров, Б. Вяземский

Перевод: Не требуется
Субтитры: Отсутствуют

Описание:
Начало 50-х годов. Необычные для черноморского побережья заморозки погубили на опытной ботанической станции апельсиновые деревья, предназначенные для выведения новых сортов. Остался только один экземпляр, который нечем опылить.


Дополнительно:
MediaInfo ▼Text
Общее
Полное имя :L:Золотые яблоки.1954olotye yabloki.avi
Формат :AVI
Размер :1.03 GiB
Продолжительность :01:14:25.960
Общий поток :1 987 Kbps
Программа кодирования :VirtualDubMod 1.5.10.2 (build 2540/release)
Библиотека кодирования :VirtualDubMod build 2540/release

Видео
Идентификатор :0
Формат :MPEG-4 Visual
Профиль формата :Advanced [email protected]
Параметр BVOP формата :2
Параметр Qpel формата :No
Параметр GMC формата :0
Параметр Matrix формата :Default (MPEG)
Идентификатор кодека :XVID
Продолжительность :1h 14mn 25s 960ms
Битрейт :1 850 Kbps
Ширина :640 pixels
Высота :480 pixels
Соотношение сторон :1.333
Частота кадров :25.000 fps
Глубина цвета :8 bits
Подвыборка цветности :4:2:0
Цветовое пространство :YUV
Тип развертки :Progressive
Бит/(Пиксели*Кадры) :0.241
Размер потока :985 MiB (93%)
Библиотека кодирования :XviD0046C

Аудио #1
Идентификатор :1
Формат :MPEG Audio
Идентификатор кодека :55
Продолжительность :01:14:25.944
Вид битрейта :Constant
Битрейт :128 Kbps
Канал(ы) :2 channels
Частота :48.0 KHz
Метод сжатия :Lossy
Размер потока :68.1 MiB (6%)



Тех. данные:
Качество:DVDRip
Продолжительность:01:14:20 час

Формат: AVI
Видео кодек: XviD
Аудио кодек: MPA1L3
Видео: 640 x 480 (4:3), 25.000 fps, 1 850 Kbps, 0.241 b
3d0119f5949c9c6dd49c789bd3658e4d7c9abf59Золотые яблоки (Фёдор Филиппов, семейный, 1954) [DVDRip, Не требуется] Золотые яблоки (Фёдор Филиппов, семейный, 1954) [DVDRip, Не требуется] " />

Аплоадер: Админ, дата: 22-04-2013, 16:12, торрент скачан: 359 раз

Понравилась раздача? Посмотрите эти:
  • Дружок (Виктор Эйсымонт, семейный, 1958) [DVDRip, Не требуется]
  • Бой под Соколом (Александр Разумный, военный, 1942) [DVDRip, Не требуется]
  • Акваланги на дне (Евгений Шерстобитов, боевик, приключения, семейный, 1965) ...
  • По Руси (Фёдор Филиппов, биография, 1968) [DVDRip, Не требуется]
  • Таинственная находка (Борис Бунеев, детский, приключения, 1954) [DVDRip, Не ...
  • Проверка на дорогах (Алексей Герман, драма, военный, 1971) [DVDRip, Не треб ...
  • Приключения Толи Клюквина (Виктор Эйсымонт, комедия, семейный, 1964) [DVDRi ...
  • И вот пришел Бумбо... (Надежда Кошеверова, В. Апананский, Н. Окунцова, семе ...
  • Иван да Марья (Борис Рыцарев, фэнтези, мелодрама, комедия, семейный, музыка ...
  • Яблоки сорок первого года (Равиль Батыров, драма, 1969) [DVDRip, Не требует ...
  • Князь Игорь (Роман Тихомиров, мюзикл, приключения, 1969) [DVDRip, Не требуе ...
  • Капитанская дочка (Владимир Каплуновский, драма, 1958) [DVDRip, Не требуетс ...
  • Мы с вами где-то встречались (Николай Досталь, Андрей Тутышкин, комедия, 19 ...
  • Царевич Проша (Надежда Кошеверова, фэнтези, семейный, 1947) [DVDRip, Не тре ...
  • Мульт-Салют. 11 часть из 30: Царевна-лягушка/Конек-Горбунок (Михаил Цеханов ...
  • Карусель (Михаил Швейцер, комедия, 1970) [DVDRip, Не требуется]
  • Спортлото-82 (Леонид Гайдай, комедия, приключения, 1982) [DVDRip, Не требуе ...
  • Соловей (Надежда Кошеверова, мюзикл, семейный, 1979) [DVDRip, Не требуется] ...
  • Пропало лето (Ролан Быков, Никита Орлов, комедия, семейный, 1963) [DVDRip, ...
  • След кота (Уильям А. Уэллмен, драма, вестерн, 1954) [DVDRip, Любительский ( ...
  • Сказка о царе Салтане (Александр Птушко, фэнтези, семейный, 1967) [DVDRip, ...
  • После дождичка, в четверг... (Михаил Юзовский, семейный, 1987) [DVDRip, Не ...
  • Лиловая равнина / The Purple Plain (Роберт Пэрриш, боевик, драма, приключен ...
  • Урок любви / En lektion i karlek (Ингмар Бергман, драма, комедия, 1954) [DV ...
  • Герои Шипки (Сергей Васильев, драма, военный, история, 1954) [DVDRip, Не тр ...
  • Информация
    Посетители, находящиеся в группе Гости, не могут оставлять комментарии к данной публикации.