вход на сайт

Имя пользователя :
Пароль :

Восстановление пароля Регистрация
Июльский дождь (Марлен Хуциев, драма, 1966) [DVDRip, Не требуется]
Рейтинг:
(голосов: 1)



[img]{THEME}/images/logopost.png[/img]



Июльский дождь

Год выпуска: 1966
Страна: СССР
Производство: Мосфильм
Жанр: драма

Режиссёр: Марлен Хуциев
В ролях: Евгения Уралова, Александр Белявский, Александр Митта, Юрий Визбор, Алла Покровская, Евгения Козырева, Зиновий Гердт, Илья Былинкин, Юрий Ильчук, Борис Белоусов

Перевод: Не требуется
Субтитры: Отсутствуют

Описание:
Героям фильма — примерно тридцать. Очень часто именно в это время у людей наступает период пересмотра уже выработанных ранее позиций. К такому пересмотру и приходит Лена, героиня этого фильма. Ей многое надо обдумать заново.

Она начинает понимать, что прежние оценки поверхностны, все предстает перед ней в ином, более ясном и резком свете. Это порой связано с потерями. Лена теряет бывшего ей самым близким человека, который становится чужим и далеким.


Дополнительно:
MediaInfo ▼Text
Общее
Полное имя :L:Июльский дождьIjul`skiy dozhd`.avi
Формат :AVI
Размер :1.37 GiB
Продолжительность :01:43:11.280
Общий поток :1 898 Kbps
Программа кодирования :VirtualDubMod 1.5.4.1 (build 2178/release)
Библиотека кодирования :VirtualDubMod build 2178/release

Видео
Идентификатор :0
Формат :MPEG-4 Visual
Параметр BVOP формата :No
Параметр Qpel формата :No
Параметр GMC формата :0
Параметр Matrix формата :Default (H.263)
Идентификатор кодека :DX50
Продолжительность :1h 43mn 11s 280ms
Битрейт :1 791 Kbps
Ширина :720 pixels
Высота :304 pixels
Соотношение сторон :2.368
Частота кадров :25.000 fps
Глубина цвета :8 bits
Подвыборка цветности :4:2:0
Цветовое пространство :YUV
Тип развертки :Progressive
Бит/(Пиксели*Кадры) :0.327
Размер потока :1.29 GiB (94%)
Библиотека кодирования :DivX503b1328

Аудио #1
Идентификатор :1
Формат :MPEG Audio
Идентификатор кодека :55
Продолжительность :01:43:11.280
Вид битрейта :Variable
Битрейт :94.5 Kbps
Канал(ы) :1 channel
Частота :48.0 KHz
Метод сжатия :Lossy
Размер потока :69.8 MiB (5%)



Тех. данные:
Качество:DVDRip
Продолжительность:01:43
5818608629e7e8a3558d843a825a8acd566d07dcИюльский дождь (Марлен Хуциев, драма, 1966) [DVDRip, Не требуется] Июльский дождь (Марлен Хуциев, драма, 1966) [DVDRip, Не требуется] " />

Аплоадер: Админ, дата: 22-04-2013, 16:03, торрент скачан: 359 раз

Понравилась раздача? Посмотрите эти:
  • Вертикаль (Борис Дуров, Станислав Говорухин, приключения, 1966) [DVDRip, Не ...
  • Летят журавли (Михаил Калатозов, драма, мелодрама, военный, 1957) [DVDRip, ...
  • Евдокия (Полная реставрация) (Татьяна Лиознова, драма, 1961) [DVDRip, Не тр ...
  • Выстрел (Наум Трахтенберг, драма, 1966) [DVDRip, Не требуется]
  • Старшина (Николай Кошелев, драма, 1979) [DVDRip, Не требуется]
  • Рыжик (Илья Фрэз, приключения, семейный, 1960) [DVDRip, Не требуется]
  • Путевка в Жизнь (Николай Экк, драма, 1931) [DVDRip, Не требуется]
  • Прощай, шпана замоскворецкая... (Александр Панкратов, драма, мелодрама, 198 ...
  • Далеко от Москвы (Александр Столпер, драма, 1950) [DVDRip, Не требуется]
  • Земля отцов (Шакен Айманов, драма, 1966) [DVDRip, Не требуется]
  • Друг мой, Колька!.. (Александр Митта, Алексей Салтыков, драма, 1961) [DVDRi ...
  • Ой, вы, гуси... (Лидия Боброва, Драма, 1991) [DVDRip, Не требуется]
  • Не забудь... станция Луговая (Никита Курихин, Леонид Менакер, драма, мелодр ...
  • Левша (Сергей Овчаров, драма, комедия, 1986) [DVDRip, Не требуется]
  • Родина зовет (Александр Мачерет, военный, 1936) [DVDRip, Не требуется]
  • Их знали только в лицо (Антон Тимонишин, драма, 1966) [DVDRip, Не требуется ...
  • Славный малый (Борис Барнет, военный, 1943) [DVDRip, Не требуется]
  • Соловей (Надежда Кошеверова, мюзикл, семейный, 1979) [DVDRip, Не требуется] ...
  • Скверный анекдот (Александр Алов, Владимир Наумов, комедия, 1966) [DVDRip, ...
  • Снежная королева (Геннадий Казанский, фэнтези, драма, приключения, семейный ...
  • Июльский дождь (Марлен Хуциев, Мелодрама, 1966) [DVDRip, оригинал]
  • Как украсть миллион / How to steal a million (Уильям Уайлер, комедия, крими ...
  • Был месяц май (Марлен Хуциев, драма, 1970) [DVDRip, не требуется]
  • Дядюшкин сон (Константин Воинов, драма, 1966) [DVDRip, Не требуется]
  • Золотая речка (Вениамин Дорман, приключения, 1977) [DVDRip, Не требуется]
  • Информация
    Посетители, находящиеся в группе Гости, не могут оставлять комментарии к данной публикации.