вход на сайт

Имя пользователя :
Пароль :

Восстановление пароля Регистрация
На подмостках сцены (Константин Юдин, драма, комедия, 1956) [DVDRip, Не требуется]
Рейтинг:
(голосов: 1)



[img]{THEME}/images/logopost.png[/img]



На подмостках сцены

Год выпуска: 1956
Страна: СССР
Производство: Мосфильм
Жанр: драма, комедия

Режиссёр: Константин Юдин
В ролях: Василий Меркурьев, Лилия Юдина, Татьяна Карпова, Николай Афанасьев, Михаил Яншин, Юрий Любимов, Сергей Блинников, Станислав Чекан, Александр Сашин-Никольский, Елена Савицкая

Перевод: Не требуется
Субтитры: Отсутствуют

Описание:
По мотивам водевиля Д. Ленского «Лев Гурыч Синичкин». Музыкальная кинокомедия о старом провинциальном актере и его талантливой дочери, которая мечтает посвятить свою жизнь театру.


Дополнительно:
MediaInfo ▼Text
Общее
Полное имя :K:На подмостках сценыNa podmostkah sceny.DVDRip.avi
Формат :AVI
Размер :1.36 GiB
Продолжительность :01:22:56.288
Общий поток :2 351 Kbps
Программа кодирования :VirtualDubModRus 1.5.10.2 (build 2542/release)
Библиотека кодирования :VirtualDubMod build 2542/release

Видео
Идентификатор :0
Формат :MPEG-4 Visual
Параметр BVOP формата :1
Параметр Qpel формата :No
Параметр GMC формата :0
Параметр Matrix формата :Default (H.263)
Идентификатор кодека :DX50
Продолжительность :1h 22mn 56s 280ms
Битрейт :2 149 Kbps
Ширина :688 pixels
Высота :512 pixels
Соотношение сторон :1.344
Частота кадров :25.000 fps
Глубина цвета :8 bits
Подвыборка цветности :4:2:0
Цветовое пространство :YUV
Тип развертки :Progressive
Бит/(Пиксели*Кадры) :0.244
Размер потока :1.25 GiB (91%)
Библиотека кодирования :DivX503b1307p

Аудио #1
Идентификатор :1
Формат :AC-3
Формат/Информация :Audio Coding 3
Идентификатор кодека :2000
Продолжительность :01:22:56.288
Вид битрейта :Constant
Битрейт :192 Kbps
Канал(ы) :2 channels
Расположение каналов :Front: L R
Частота :48.0 KHz
Битовая глубина :16 bits
Метод сжатия :Lossy
Размер потока :114 MiB (8%)



Тех. данные:
Качество:DVDRip
Продолжительность:01:22:58 час

Формат:
08705a12a5eae12fed8a8b4a01992260890b3f20На подмостках сцены (Константин Юдин, драма, комедия, 1956) [DVDRip, Не требуется] На подмостках сцены (Константин Юдин, драма, комедия, 1956) [DVDRip, Не требуется] " />

Аплоадер: Админ, дата: 21-04-2013, 20:30, торрент скачан: 359 раз

Понравилась раздача? Посмотрите эти:
  • Борец и клоун (Борис Барнет, Константин Юдин, драма, спорт, 1957) [DVDRip, ...
  • Человек, которому везло (Константин Ершов, драма, 1978) [DVDRip, Не требует ...
  • Мир дому твоему (2 части из 2) (Константин Райкин, Аркадий Райкин, Марк Орл ...
  • Медовый месяц (Надежда Кошеверова, мелодрама, комедия, 1956) [DVDRip, Не тр ...
  • Четвертый (Александр Столпер, драма, 1972) [DVDRip, Не требуется]
  • Убийство на улице Данте (Михаил Ромм, драма, 1956) [DVDRip, Не требуется]
  • Она вас любит (Семен Деревянский, Рафаил Суслович, мелодрама, комедия, 1956 ...
  • Левша (Сергей Овчаров, драма, комедия, 1986) [DVDRip, Не требуется]
  • Комиссар (Александр Аскольдов, драма, военный, 1967) [DVDRip, Не требуется] ...
  • Чайка (Юлий Карасик, драма, 1972) [DVDRip, Не требуется]
  • Дача (Константин Воинов, комедия, 1974) [DVDRip, Не требуется]
  • Бабушки надвое сказали (Валерий Харченко, Юрий Клебанов, комедия, 1979) [DV ...
  • Майская ночь, или Утопленница (Александр Роу, фэнтези, комедия, 1952) [DVDR ...
  • Смелые люди (Константин Юдин, боевик, драма, военный, 1950) [DVDRip, Не тре ...
  • Старомодная комедия (Эра Савельева, Татьяна Березанцева, мелодрама, 1978) [ ...
  • Хозяйка гостиницы (Михаил Названов, комедия, 1956) [DVDRip, Не требуется]
  • Донская повесть (Владимир Фетин, драма, 1964) [DVDRip, Не требуется]
  • Близнецы (Константин Юдин, комедия, 1945) [TVRip, Перевод, Не требуется]
  • Драгоценный подарок (Александр Роу, семейный, 1956) [DVDRip, Не требуется]
  • Шофер поневоле (Надежда Кошеверова, комедия, 1958) [DVDRip, Не требуется]
  • Шведская спичка (Константин Юдин, комедия, детектив, 1955) [DVDRip, Не треб ...
  • Дядюшкин сон (Константин Воинов, драма, 1966) [DVDRip, Не требуется]
  • В добрый час! (Виктор Эйсымонт, драма, мелодрама, 1956) [DVDRip, Не требует ...
  • Сердца четырех (Константин Юдин, мелодрама, комедия, 1941) [DVDRip, Не треб ...
  • За облаками – небо (Юрий Егоров, драма, 1973) [DVDRip, Не требуется]
  • Информация
    Посетители, находящиеся в группе Гости, не могут оставлять комментарии к данной публикации.