вход на сайт

Имя пользователя :
Пароль :

Восстановление пароля Регистрация
Подранки (Николай Губенко, драма, 1976) [DVDRip, Не требуется]
Рейтинг:
(голосов: 1)



[img]{THEME}/images/logopost.png[/img]



Подранки

Год выпуска: 1976
Страна: СССР
Производство: Мосфильм
Жанр: драма

Режиссёр: Николай Губенко
В ролях: Юозас Будрайтис, Георгий Бурков, Александр Калягин, Алексей Черствов, Жанна Болотова, Бухути Закариадзе, Ролан Быков, Евгений Евстигнеев, Николай Губенко, Наталья Гундарева

Перевод: Не требуется
Субтитры: Отсутствуют

Описание:
Печаль и радость, вера и отчаянье тесно переплетаются в сознании писателя Алексея Бертенева, когда память возвращает его в детство. А детство этого поколения было нелегким — оно пришлось на суровые годы войны.


Дополнительно:
MediaInfo ▼Text
Общее
Полное имя :K:ПодранкиPodranki.745M.avi
Формат :AVI
Размер :746 MiB
Продолжительность :01:28:09.600
Общий поток :1 183 Kbps
Программа кодирования :VirtualDubMod 1.5.10.3 | www.virtualdub-fr.org || (build 2550/release)
Библиотека кодирования :VirtualDubMod build 2550/release

Видео
Идентификатор :0
Формат :MPEG-4 Visual
Профиль формата :Advanced [email protected]
Параметр BVOP формата :2
Параметр Qpel формата :No
Параметр GMC формата :0
Параметр Matrix формата :Custom
Идентификатор кодека :XVID
Продолжительность :1h 28mn 9s 600ms
Битрейт :1 045 Kbps
Ширина :640 pixels
Высота :480 pixels
Соотношение сторон :1.333
Частота кадров :25.000 fps
Глубина цвета :8 bits
Подвыборка цветности :4:2:0
Цветовое пространство :YUV
Тип развертки :Progressive
Бит/(Пиксели*Кадры) :0.136
Размер потока :659 MiB (88%)
Библиотека кодирования :XviD0064

Аудио #1
Идентификатор :1
Формат :MPEG Audio
Идентификатор кодека :55
Продолжительность :01:28:09.576
Вид битрейта :Constant
Битрейт :128 Kbps
Канал(ы) :2 channels
Частота :48.0 KHz
Метод сжатия :Lossy
Размер потока :80.7 MiB (11%)



Тех. данные:
Качество:DVDRip
Продолжительность:01:28:00 час

Формат: AVI
Видео кодек: XviD
Аудио кодек: MPA1L3
Видео: 640 x 480 (4:3), 25.000 fps, 1 045 Kbps, 0.136 bit/pixel
Аудио :
ddfda0d1bef9079f18499ef724baecd6cd8bd45aПодранки (Николай Губенко, драма, 1976) [DVDRip, Не требуется] Подранки (Николай Губенко, драма, 1976) [DVDRip, Не требуется] " />

Аплоадер: Админ, дата: 21-04-2013, 20:19, торрент скачан: 359 раз

Понравилась раздача? Посмотрите эти:
  • Журавушка (Николай Москаленко, драма, мелодрама, 1968) [DVDRip, Не требуетс ...
  • Неоконченная пьеса для механического пианино (Никита Михалков, драма, 1976) ...
  • Из жизни отдыхающих (Николай Губенко, драма, мелодрама, 1980) [DVDRip, Не т ...
  • Дневной поезд (Инесса Селезнева, драма, 1976) [DVDRip, Не требуется]
  • Человек идёт за солнцем (Михаил Калик, драма, 1961) [DVDRip, Не требуется]
  • Старшина (Николай Кошелев, драма, 1979) [DVDRip, Не требуется]
  • Семьдесят два градуса ниже нуля (Сергей Данилин, Евгений Татарский, боевик, ...
  • Таинственная находка (Борис Бунеев, детский, приключения, 1954) [DVDRip, Не ...
  • Путевка в Жизнь (Николай Экк, драма, 1931) [DVDRip, Не требуется]
  • Деревня Утка (Борис Бунеев, семейный, 1976) [DVDRip, Не требуется]
  • Завтрак на траве (Николай Александрович, детский, комедия, 1979) [DVDRip, Н ...
  • Левша (Сергей Овчаров, драма, комедия, 1986) [DVDRip, Не требуется]
  • Кадкина всякий знает (Анатолий Вехотко, Наталья Трощенко, мелодрама, 1976) ...
  • Двадцать дней без войны (Алексей Герман, драма, мелодрама, военный, 1976) [ ...
  • Солёный пёс (Николай Кошелев, драма, комедия, 1973) [DVDRip, Не требуется]
  • Чучело (2 части из 2) (Ролан Быков, Аркадий Хайт, драма, 1983) [DVDRip, Не ...
  • Табор уходит в небо (Эмиль Лотяну, мюзикл, драма, мелодрама, 1976) [DVDRip, ...
  • Самый красивый конь (Степан Пучинян, мелодрама, 1976) [DVDRip, Не требуется ...
  • Подранки (Николай Губенко. драма. 1977) [DVDRip]
  • Кутузов (Владимир Петров, драма, 1943) [DVDRip, Не требуется]
  • Информация
    Посетители, находящиеся в группе Гости, не могут оставлять комментарии к данной публикации.