вход на сайт

Имя пользователя :
Пароль :

Восстановление пароля Регистрация
Случай с Полыниным (Алексей Сахаров, драма, военный, 1970) [DVDRip, Не требуется]
Рейтинг:
(голосов: 1)



[img]{THEME}/images/logopost.png[/img]



Случай с Полыниным

Год выпуска: 1970
Страна: СССР
Производство: Мосфильм
Жанр: драма, военный

Режиссёр: Алексей Сахаров
В ролях: Анастасия Вертинская, Олег Ефремов, Олег Табаков, Нонна Мордюкова, Белла Манякина, Георгий Бурков, Александр Ханов, Валентин Брылеев, Зоя Василькова, Михаил Глузский

Перевод: Не требуется
Субтитры: Отсутствуют

Описание:
В первые дни войны молодая московская актриса Галина Прокофьева вместе с фронтовой актерской бригадой была направлена на Карельский фронт. Именно там впервые услышал ее песни командир авиационного полка Полынин. Вскоре она уехала, а Полынин продолжал воевать, думать о Галине и писать короткие письма женщине, на которой решил жениться…


Дополнительно:
MediaInfo ▼Text
Общее
Полное имя :K:Случай с ПолынинымСлучай с Полыниным (1970).avi
Формат :AVI
Размер :1.23 GiB
Продолжительность :01:32:46.360
Общий поток :1 901 Kbps
Библиотека кодирования :VirtualDub build 31953/release

Видео
Идентификатор :0
Формат :MPEG-4 Visual
Параметр BVOP формата :1
Параметр Qpel формата :No
Параметр GMC формата :0
Параметр Matrix формата :Default (H.263)
Идентификатор кодека :DX50
Продолжительность :1h 32mn 46s 360ms
Битрейт :1 700 Kbps
Ширина :692 pixels
Высота :564 pixels
Соотношение сторон :1.227
Частота кадров :25.000 fps
Глубина цвета :8 bits
Подвыборка цветности :4:2:0
Цветовое пространство :YUV
Тип развертки :Progressive
Бит/(Пиксели*Кадры) :0.174
Размер потока :1.10 GiB (89%)
Библиотека кодирования :DivX503b2816p

Аудио #1
Идентификатор :1
Формат :MPEG Audio
Идентификатор кодека :55
Продолжительность :01:32:43.803
Вид битрейта :Constant
Битрейт :192 Kbps
Канал(ы) :2 channels
Частота :44.1 KHz
Метод сжатия :Lossy
Размер потока :127 MiB (10%)



Тех. данные:
Качество:DVDRip
Продолжительность:01:32:40 час

Формат: AVI
Видео кодек: DivX
Аудио кодек: MPA1L3
Видео: 692 x 564 (1.227), 25.000 fps, 1 700 Kbps, 0.174 bit/pixel
Аудио : 44.1 KHz, , 2 channels
9dcd5fda581c7486ad345a94c8dc0e29ebb34a16Случай с Полыниным (Алексей Сахаров, драма, военный, 1970) [DVDRip, Не требуется] Случай с Полыниным (Алексей Сахаров, драма, военный, 1970) [DVDRip, Не требуется] " />

Аплоадер: Админ, дата: 21-04-2013, 19:33, торрент скачан: 359 раз

Понравилась раздача? Посмотрите эти:
  • Вас вызывает Таймыр (Алексей Коренев, комедия, 1970) [DVDRip, Не требуется] ...
  • Бой под Соколом (Александр Разумный, военный, 1942) [DVDRip, Не требуется]
  • Летят журавли (Михаил Калатозов, драма, мелодрама, военный, 1957) [DVDRip, ...
  • Зеленые цепочки (Григорий Аронов, приключения, 1970) [DVDRip, Не требуется] ...
  • Два дня чудес (Лев Мирский, комедия, 1970) [DVDRip, Не требуется]
  • Эзоп (Олег Рябоконь, драма, история, 1981) [DVDRip, Не требуется]
  • Тайна железной двери (Михаил Юзовский, фантастика, приключения, семейный, 1 ...
  • Проверка на дорогах (Алексей Герман, драма, военный, 1971) [DVDRip, Не треб ...
  • Путь к сердцу (Виктор Ивченко, мелодрама, 1970) [DVDRip, Не требуется]
  • Обыкновенная история (2 части из 2) (Галина Волчек, фильм-спектакль, драма, ...
  • Бабье царство (Алексей Салтыков, драма, 1967) [DVDRip, Не требуется]
  • Живые и мертвые (2 части из 2) (Александр Столпер, драма, военный, 1963) [D ...
  • Друг мой, Колька!.. (Александр Митта, Алексей Салтыков, драма, 1961) [DVDRi ...
  • Опекун (Эдгар Ходжикян, Альберт С. Мкртчян, комедия, 1970) [DVDRip, Не треб ...
  • Комиссар (Александр Аскольдов, драма, военный, 1967) [DVDRip, Не требуется] ...
  • Двадцать дней без войны (Алексей Герман, драма, мелодрама, военный, 1976) [ ...
  • Чудный характер (Константин Воинов, драма, 1970) [DVDRip, Не требуется]
  • Печники (Виктор Храмов, драма, 1982) [DVDRip, Не требуется]
  • Карусель (Михаил Швейцер, комедия, 1970) [DVDRip, Не требуется]
  • Смелые люди (Константин Юдин, боевик, драма, военный, 1950) [DVDRip, Не тре ...
  • Снежная сказка (Алексей Сахаров, Эльдар Шенгелая, фэнтези, 1959) [DVDRip, Н ...
  • Тихий Дон (3 части из 3) (Сергей Герасимов, драма, военный, 1957) [DVDRip, ...
  • Болотные солдаты (Александр Мачерет, драма, военный, 1938) [DVDRip, Не треб ...
  • Р.В.С. (Алексей Мороз, военный, 1977) [DVDRip, (2х)Оригинал (русский)]
  • Суворов (Михаил Доллер, Всеволод Пудовкин, драма, военный, биография, истор ...
  • Информация
    Посетители, находящиеся в группе Гости, не могут оставлять комментарии к данной публикации.