вход на сайт

Имя пользователя :
Пароль :

Восстановление пароля Регистрация
Начальник Чукотки (Виталий Мельников, драма, комедия, приключения, история, 1966) [DVDRip, Не требуется]
Рейтинг:
(голосов: 1)



[img]{THEME}/images/logopost.png[/img]



Начальник Чукотки

Год выпуска: 1966
Страна: СССР
Выпущено: Ленфильм
Жанр: драма, комедия, приключения, история

Режиссёр: Виталий Мельников
В главных ролях: Михаил Кононов, Алексей Грибов, Геннадий Данзанов, Николай Волков, Павел Винник, Степан Крылов, Тито Ромалио, Иосиф Конопатский, Алексей Кожевников, Константин Абашевский, Павел Панков, Анатолий Королькевич, Анатолий Абрамов, Александр Захаров, Николай Кузьмин, Лим Су, Михаил Васильев...


Перевод: Не требуется
Субтитры: Нет

О фильме: 1922 год. Молодой ревкомовский писарь Алексей Бычков и комиссар Алексей Михайлович Глазков едут из бухты Вознесения в Уйгунан (Чукотка). По дороге Глазков умирает от тифа. По приезду Уйгунан Алексея встречает бывший царский таможенник Храмов. В сложившейся ситуации Алексей назначает себя начальником Чукотки. Он раздаёт голодающим чукчам запасы со склада американского промышленника Стенсона. Храмов препятствует этому и Алексей его арестовывает.
Весной с началом навигации на Чукотку для обмена пушнины начинают прибывать коммерческие корабли разных стран. Алексей требует от Стенсона перестать спаивать чукчей. Он также устанавливает 40 % пошлину на пушнину, следит за тем, чтобы купцы не обманывали чукчей. В итоге собирает миллион долларов пошлины.
Купцы подговаривают контрреволюционное правительство «Свободной Чукотки» избавиться от Алексея. Правительство в полном составе нападает на посёлок. Чукчи отказываются стрелять в людей и Алексею приходится бежать на лодке через Берингов пролив на Аляску...




Качество: DVDRip
Продолжительность: 01:26:08

"MI" ▼Общее
Полное имя : Nachalnik.Chukotki.1966.DVDRip-745_[Youtracker]_by_AVP Studio.avi
Формат : AVI
Формат/Информация : Audio Video Interleave
Размер файла : 745 Мбайт
Продолжительность : 1 ч. 26 м.
Общий поток : 1209 Кбит/сек
Программа кодирования : VirtualDubModRus 1.5.10.2 (build 2542/release)
Библиотека кодирования : VirtualDubMod build 2542/release

Видео
Идентификатор : 0
Формат : MPEG-4 Visual
Профиль формата : Advanced [email protected]
Параметр BVOP формата : 1
Параметр QPel формата : Нет
Параметр GMC формата : Без точки перехода
Параметр матрицы формата : Выборочная
Идентификатор кодека : XVID
Идентификатор кодека/Подсказка : XviD
Продолжительность : 1 ч. 26 м.
Битрейт : 1071 Кбит/сек
Ширина : 704 пикселя
Высота : 320 пикселей
Соотношение сторон : 2,2:1
Частота кадров : 25,000 кадров/сек
Цветовое пространство : YUV
Субдискретизация насыщенности : 4:2:0
Битовая глубина : 8 бит
Тип развёртки : Прогрессивная
Метод сжатия : С потерями
Бит/(Пиксели*Кадры) : 0.190
Размер потока : 660 Мбайт (89%)
Библиотека кодирования : XviD 65

Аудио
Идентификатор : 1
Формат : MPEG Audio
Версия формата : Version 1
Профиль формата : Layer 3
Идентификатор кодека : 55
Идентификатор кодека/Подсказка : MP3
Продолжительность : 1 ч. 26 м.
Вид битрейта : Постоянный
Битрейт : 128 Кбит/сек
Каналы : 2 канала
Частота : 48,0 КГц
Метод сжатия : С потерями
Размер потока : 78,9 Мбайт (11%)
Выравнивание : Соединение по промежуткам
Продолжительность промежутка : 40 мс. (1,00 видеокадр)
Время предзагрузки промежутка : 504 мс.
Библиотека кодирования : L3.99r
Настройки программы : -m s -V 4 -q 2 -lowpass 17 -b 128

Формат: AVI
Видео кодек: XviD
Аудио кодек: MP3
Видео: 704x320 (2,2:1), 25 fps, XviD ~ 1071 kbps avg, 0.190 bit/pixel
Аудио: 48 kHz, MP3 2.0, 128 kbps


Наши рипы / Набор в РГ / Стол заказов РГ / Стол заказов по РИПам



4fb2661caddd40c70e157190962a7c1fe2695c0aНачальник Чукотки (Виталий Мельников, драма, комедия, приключения, история, 1966) [DVDRip, Не требуется] Начальник Чукотки (Виталий Мельников, драма, комедия, приключения, история, 1966) [DVDRip, Не требуется] " />

Аплоадер: Админ, дата: 15-05-2013, 00:57, торрент скачан: 359 раз

Понравилась раздача? Посмотрите эти:
  • Миллионы Брюстера / Brewsters Millions (Уолтер Хилл, Комедия, 1985) [HDTVRi ...
  • Околофутбола (Антон Борматов, драма, криминал, 2013) [DVDRip, Не требуется] ...
  • Слежка / The Letter (Джей Ананья, Триллер, драма, 2012) [DVDRip, Профессион ...
  • Выйти замуж за капитана (Виталий Мельников, мелодрама, комедия, 1985) [DVDR ...
  • Друг мой, Колька!.. (Александр Митта, Алексей Салтыков, драма, 1961) [DVDRi ...
  • Начальник Чукотки (Виталий Мельников, драма, комедия, приключения, история, ...
  • К черному морю (Андрей Тутышкин, мелодрама, комедия, 1957) [DVDRip, не треб ...
  • Я тоже хочу (Алексей Балабанов, драма, криминал, 2012) [DVDRip, Не требуетс ...
  • Царская охота (2 части из 2) (Виталий Мельников, драма, история, 1990) [DVD ...
  • 1812: Уланская баллада (Олег Фесенко, приключения, 2012) [DVDRip, Не требуе ...
  • Бог любви / God of Love (Люк Мэзени, Короткометражка, фэнтези, комедия, мел ...
  • Любовь по расписанию / Поезд (Сергей Мезенцев, мелодрама, 2012) [HDTVRip, Н ...
  • Вечерний Ургант // Сезон 2. Выпуск 63 (ТВ-шоу, 20.12.2012) [SATRip, Не треб ...
  • Председатель (2 части из 2) (Алексей Салтыков, драма, 1964) [DVDRip, Не тре ...
  • Дорога на... / Road to (Таисия Игуменцева, Комедия, короткометражный, 2011) ...
  • Начальник Чукотки (Виталий Мельников, Комедия, драма, приключения, история, ...
  • Шаман // Сезон 1, Эпизоды с 1 по 16 (из 16) (Драма, Криминал, 2011) [DVDRip ...
  • Андрей Рублев (Андрей Тарковский, Драма, история, 1966) [HDRip, Не требуетс ...
  • Бюро находок : Потерянный и найденный / Lost and Found (Филип Хант, коротко ...
  • Человек из банки (Иван Кульнев, Комедия, 2012) [DVDRip, Не требуется]
  • Информация
    Посетители, находящиеся в группе Гости, не могут оставлять комментарии к данной публикации.