вход на сайт

Имя пользователя :
Пароль :

Восстановление пароля Регистрация
Геркус Мантас (2 части из 2) (Марионас Гедрис, драма, 1972) [SATRip, Профессиональный (полное дублирование)]
Рейтинг:
(голосов: 1)



[img]{THEME}/images/logopost.png[/img]



Геркус Мантас (2 части из 2)

Год выпуска: 1972
Страна: СССР
Производство: Литовская киностудия
Жанр: драма

Режиссёр: Марионас Гедрис
В ролях: Антанас Шурна, Эугения Плешките, Альгимантас Масюлис, Стасис Пятронайтис, Пранас Пяулокас, Витаутас Паукште, Эйнари Коппель, Альгимантас Вощикас, Александр Вокач, Гедиминас Карка

Перевод: Профессиональный (полное дублирование)
Субтитры: Отсутствуют

Описание:
Действие происходит в XIII веке. Фильм рассказывает о Геркусе Мантaсе — верховном вожде пруссов, порабощенных орденом крестоносцев.


Дополнительно:
MediaInfo ▼Text
"1 часть" ▼Общее
Полное имя :K:Геркус МантасGerkus MantasGerkus Mantas.1972.1 seria.avi
Формат :AVI
Размер :783 MiB
Продолжительность :01:04:32.568
Общий поток :1 697 Kbps
Программа кодирования :VirtualDubModRus 1.5.10.2 (build 2542/release)
Библиотека кодирования :VirtualDub build 34753/release

Видео
Идентификатор :0
Формат :MPEG-4 Visual
Профиль формата :Advanced [email protected]
Параметр BVOP формата :2
Параметр Qpel формата :No
Параметр GMC формата :0
Параметр Matrix формата :Default (H.263)
Идентификатор кодека :XVID
Продолжительность :1h 4mn 32s 520ms
Битрейт :1 495 Kbps
Ширина :704 pixels
Высота :304 pixels
Соотношение сторон :2.316
Частота кадров :25.000 fps
Глубина цвета :8 bits
Подвыборка цветности :4:2:0
Цветовое пространство :YUV
Тип развертки :Progressive
Бит/(Пиксели*Кадры) :0.279
Размер потока :690 MiB (88%)
Библиотека кодирования :XviD0064

Аудио #1
Идентификатор :1
Формат :MPEG Audio
Идентификатор кодека :55
Продолжительность :01:04:32.568
Вид битрейта :Constant
Битрейт :192 Kbps
Канал(ы) :2 channels
Частота :48.0 KHz
Метод сжатия :Lossy
Размер потока :88.6 MiB (11%)

"2 часть" ▼Общее
Полное имя :K:Геркус МантасGerkus MantasGerkus Mantas.1972.2 seria.avi
Формат
60b6f0fb492b60fbefefd1b0845082cdf042eb53Геркус Мантас (2 части из 2) (Марионас Гедрис, драма, 1972) [SATRip, Профессиональный (полное дублирование)] Геркус Мантас (2 части из 2) (Марионас Гедрис, драма, 1972) [SATRip, Профессиональный (полное дублирование)] " />

Аплоадер: Админ, дата: 11-05-2013, 20:12, торрент скачан: 359 раз

Понравилась раздача? Посмотрите эти:
  • Дни хирурга Мишкина (3 части из 3) (Вадим Зобин, драма, 1967) [DVDRip, Не т ...
  • Айрик (Генрих Малян, драма, семейный, 1972) [DVDRip, Профессиональный (пол ...
  • Отпуск за свой счет (2 части из 2) (Виктор Титов, мелодрама, комедия, 1981) ...
  • Месье Ленуар, который... (2 части из 2) (Александр Орлов, телеспектакль, др ...
  • Люди и манекены (4 части из 4) (Виктор Храмов, Аркадий Райкин, комедия, 197 ...
  • Бой после победы (2 части из 2) (Виллен Азаров, триллер, военный, 1972) [DV ...
  • Двенадцать месяцев (2 части из 2) (Анатолий Граник, фэнтези, семейный, 1972 ...
  • До последней капли крови (2 части из 2) / Do krwi ostatiej (Ежи Гоффман, др ...
  • Объяснение в любви (2 части из 2) (Илья Авербах, мелодрама, 1977) [DVDRip, ...
  • Черная гора (Александр Згуриди, драма, семейный, 1972) [DVDRip, Профессиона ...
  • Пропавшая грамота (Борис Ивченко, фэнтези, комедия, 1972) [DVDRip, Професси ...
  • Степь (2 части из 2) (Сергей Бондарчук, драма, история, 1977) [DVDRip, Не т ...
  • Слуги дьявола на Чёртовой мельнице (Александр Лейманис, комедия, приключени ...
  • Смок и Малыш (3 части из 3) (Раймондас Вабалас, приключения, история, 1975) ...
  • Руслан и Людмила (2 части из 2) (Александр Птушко, фэнтези, детектив, 1972) ...
  • Председатель (2 части из 2) (Алексей Салтыков, драма, 1964) [DVDRip, Не тре ...
  • 31 июня (2 части из 2) (Леонид Квинихидзе, мюзикл, фэнтези, мелодрама, 1978 ...
  • Тихий Дон (3 части из 3) (Сергей Герасимов, драма, военный, 1957) [DVDRip, ...
  • Гений (2 части из 2) (Виктор Сергеев, Комедия, криминал, 1991) [DVDRip, Не ...
  • Дядюшкин сон (2 части из2) (Александр Орлов, драма, комедия, 1981) [DVDRip, ...
  • Информация
    Посетители, находящиеся в группе Гости, не могут оставлять комментарии к данной публикации.