вход на сайт

Имя пользователя :
Пароль :

Восстановление пароля Регистрация
Василий и Василиса (Ирина Поплавская, драма, мелодрама, биография, 1981) [DVDRip, Не требуется]
Рейтинг:
(голосов: 1)



[img]{THEME}/images/logopost.png[/img]



Василий и Василиса

Год выпуска: 1981
Страна: СССР
Производство: Мосфильм
Жанр: драма, мелодрама, биография

Режиссёр: Ирина Поплавская
В ролях: Ольга Остроумова, Михаил Кононов, Наталья Бондарчук, Майя Булгакова, Андрей Ростоцкий, Наталья Дикарева, Татьяна Догилева, Елена Мельникова, Геннадий Фролов, Дмитрий Орловский

Перевод: Не требуется
Субтитры: Отсутствуют

Описание:
Было у Василия и Василисы семеро детей. Жили дружно, деревня уважала работящую семью. Но однажды что-то случилось с хозяином: запил мужик и поднял руку на верную супругу. И тогда Василиса выселила мужа в амбар. Было это перед самой войной…


Дополнительно:
MediaInfo ▼Text
Общее
Полное имя :L:3.РаздачаВасилий и ВасилисаVasiliy i Vasilisa.avi
Формат :AVI
Размер :1.27 GiB
Продолжительность :01:31:47.760
Общий поток :1 988 Kbps
Программа кодирования :VirtualDubMod 1.5.10.2 (build 2540/release)
Библиотека кодирования :VirtualDubMod build 2540/release

Видео
Идентификатор :0
Формат :MPEG-4 Visual
Профиль формата :Advanced [email protected]
Параметр BVOP формата :2
Параметр Qpel формата :No
Параметр GMC формата :0
Параметр Matrix формата :Default (MPEG)
Идентификатор кодека :XVID
Продолжительность :1h 31mn 47s 760ms
Битрейт :1 850 Kbps
Ширина :688 pixels
Высота :336 pixels
Соотношение сторон :2.048
Частота кадров :25.000 fps
Глубина цвета :8 bits
Подвыборка цветности :4:2:0
Цветовое пространство :YUV
Тип развертки :Progressive
Бит/(Пиксели*Кадры) :0.320
Размер потока :1.19 GiB (93%)
Библиотека кодирования :XviD0046C

Аудио #1
Идентификатор :1
Формат :MPEG Audio
Идентификатор кодека :55
Продолжительность :01:31:47.760
Вид битрейта :Constant
Битрейт :128 Kbps
Канал(ы) :2 channels
Частота :48.0 KHz
Метод сжатия :Lossy
Размер потока :84.0 MiB (6%)



Тех. данные:
Качество:DVDRip
Продолжительность:01:31:40 час

Формат: AVI
Видео кодек: XviD
Аудио кодек: MPA1L3
8587aae5fa405d09b39d0787501d3f83993d6aefВасилий и Василиса (Ирина Поплавская, драма, мелодрама, биография, 1981) [DVDRip, Не требуется] Василий и Василиса (Ирина Поплавская, драма, мелодрама, биография, 1981) [DVDRip, Не требуется] " />

Аплоадер: Админ, дата: 11-05-2013, 12:33, торрент скачан: 359 раз

Понравилась раздача? Посмотрите эти:
  • 34-й скорый (Андрей Малюков, боевик, драма, 1981) [DVDRip, Не требуется]
  • Аленка (Борис Барнет, комедия, 1961) [DVDRip, Не требуется]
  • Агония (2 части из 2) (Элем Климов, драма, биография, история, 1981) [DVDRi ...
  • С любимыми не расставайтесь (Павел Арсенов, драма, мелодрама, 1979) [DVDRip ...
  • По Руси (Фёдор Филиппов, биография, 1968) [DVDRip, Не требуется]
  • Мужики!.. (Искра Бабич, драма, 1981) [DVDRip, Не требуется]
  • Молодая жена (Леонид Менакер, драма, мелодрама, 1978) [DVDRip, Не требуется ...
  • Летят журавли (Михаил Калатозов, драма, мелодрама, военный, 1957) [DVDRip, ...
  • Вы чье, старичье? (Иосиф Хейфиц, драма, 1988) [DVDRip, Не требуется]
  • Высота (Александр Зархи, мелодрама, 1957) [DVDRip, Не требуется]
  • Эзоп (Олег Рябоконь, драма, история, 1981) [DVDRip, Не требуется]
  • Всадник на золотом коне (Василий Журавлев, фэнтези, 1980) [DVDRip, Не требу ...
  • Звезда пленительного счастья (2 части из 2) (Владимир Мотыль, драма, мелодр ...
  • Капитанская дочка (Владимир Каплуновский, драма, 1958) [DVDRip, Не требуетс ...
  • Это мы не проходили (Илья Фрэз, драма, 1975) [DVDRip, Не требуется]
  • Пиковая Дама (Роман Тихомиров, мюзикл, драма, 1961) [DVDRip, Не требуется]
  • Сказы Уральских гор (Ольгерд Воронцов, документальный, биография, 1968) [DV ...
  • Подарок чёрного колдуна (Борис Рыцарев, фэнтези, приключения, семейный, 197 ...
  • Я вас любил... (Илья Фрэз, мелодрама, комедия, 1967) [DVDRip, Не требуется] ...
  • Юность Петра (Сергей Герасимов, драма, биография, 1980) [DVDRip, Не требует ...
  • Судьба человека (Сергей Бондарчук, драма, военный, биография, 1959) [DVDRip ...
  • Дядюшкин сон (2 части из2) (Александр Орлов, драма, комедия, 1981) [DVDRip, ...
  • Адмирал Нахимов (Всеволод Пудовкин, драма, военный, биография, история, 194 ...
  • Возвращение Василия Бортникова (Всеволод Пудовкин, драма, 1953) [DVDRip, Не ...
  • Сердца четырех (Константин Юдин, мелодрама, комедия, 1941) [DVDRip, Не треб ...
  • Информация
    Посетители, находящиеся в группе Гости, не могут оставлять комментарии к данной публикации.