вход на сайт

Имя пользователя :
Пароль :

Восстановление пароля Регистрация
Вертикаль (Борис Дуров, Станислав Говорухин, приключения, 1966) [DVDRip, Не требуется]
Рейтинг:
(голосов: 1)



[img]{THEME}/images/logopost.png[/img]



Вертикаль

Год выпуска: 1966
Страна: СССР
Производство: Одесская киностудия
Жанр: приключения

Режиссёр: Борис Дуров, Станислав Говорухин
В ролях: Владимир Высоцкий, Маргарита Кошелева, Геннадий Воропаев, Александр Фадеев, Георгий Кулбуш
, Лариса Лужина, Бухути Закариадзе, М. Анучринов, Л. Глисеев, Л. Кахилин

Перевод: Не требуется
Субтитры: Отсутствуют

Описание:
Группе альпинистов, идущих на штурм непокоренной кавказской вершины, пика Ор-Тау, послан сигнал о немедленном возвращении: надвигается грозовой циклон. Связист скрывает от товарищей это предупреждение, и они оказываются в критической ситуации. Трагедии удается избежать только благодаря мужеству спасателей и опыту самих спортсменов…


Дополнительно:
MediaInfo ▼Text
Общее
Полное имя :L:ВертикальVertikal`.DVDRip.avi
Формат :AVI
Размер :701 MiB
Продолжительность :01:12:47.400
Общий поток :1 346 Kbps
Программа кодирования :VirtualDubModRus 1.5.10.2 (build 2542/release)
Библиотека кодирования :VirtualDubMod build 2542/release

Видео
Идентификатор :0
Формат :MPEG-4 Visual
Параметр BVOP формата :1
Параметр Qpel формата :No
Параметр GMC формата :0
Параметр Matrix формата :Default (H.263)
Идентификатор кодека :DX50
Продолжительность :1h 12mn 47s 397ms
Битрейт :1 206 Kbps
Ширина :640 pixels
Высота :288 pixels
Соотношение сторон :2.222
Частота кадров :29.970 fps
Глубина цвета :8 bits
Подвыборка цветности :4:2:0
Цветовое пространство :YUV
Тип развертки :Progressive
Бит/(Пиксели*Кадры) :0.218
Размер потока :628 MiB (90%)
Библиотека кодирования :DivX503b2676p

Аудио #1
Идентификатор :1
Формат :MPEG Audio
Идентификатор кодека :55
Продолжительность :01:12:47.400
Вид битрейта :Constant
Битрейт :128 Kbps
Канал(ы) :2 channels
Частота :48.0 KHz
Метод сжатия :Lossy
Размер потока :66.6 MiB (10%)



Тех. данные:
Качество:DVDRip
Продолжительность:01:12:40 час

Формат: AVI
Видео кодек: DivX
Аудио кодек: MPA1L3
Видео: 640
0397afc2913101e200338cf27f23ea60e8440768Вертикаль (Борис Дуров, Станислав Говорухин, приключения, 1966) [DVDRip, Не требуется] Вертикаль (Борис Дуров, Станислав Говорухин, приключения, 1966) [DVDRip, Не требуется] " />

Аплоадер: Админ, дата: 11-05-2013, 12:31, торрент скачан: 359 раз

Понравилась раздача? Посмотрите эти:
  • Десять негритят (Станислав Говорухин, криминал, детектив, триллер, 1987) [D ...
  • Июльский дождь (Марлен Хуциев, драма, 1966) [DVDRip, Не требуется]
  • Борец и клоун (Борис Барнет, Константин Юдин, драма, спорт, 1957) [DVDRip, ...
  • 34-й скорый (Андрей Малюков, боевик, драма, 1981) [DVDRip, Не требуется]
  • Аленка (Борис Барнет, комедия, 1961) [DVDRip, Не требуется]
  • Каштанка (Роман Балаян, приключения, 1975) [DVDRip, Не требуется]
  • Выстрел (Наум Трахтенберг, драма, 1966) [DVDRip, Не требуется]
  • Таинственная находка (Борис Бунеев, детский, приключения, 1954) [DVDRip, Не ...
  • Совсем пропащий (Георгий Данелия, приключения, 1973) [DVDRip, Не требуется] ...
  • Рыжик (Илья Фрэз, приключения, семейный, 1960) [DVDRip, Не требуется]
  • Приключения Толи Клюквина (Виктор Эйсымонт, комедия, семейный, 1964) [DVDRi ...
  • Пакет (Владимир Назаров, комедия, приключения, семейный, 1965) [DVDRip, Не ...
  • На графских развалинах (Владимир Скуйбин, приключения, семейный, 1957) [DVD ...
  • Лес (Владимир Мотыль, драма, 1980) [DVDRip, Не требуется]
  • Князь Игорь (Роман Тихомиров, мюзикл, приключения, 1969) [DVDRip, Не требуе ...
  • Пропавшая грамота (Борис Ивченко, фэнтези, комедия, 1972) [DVDRip, Професси ...
  • Подарок чёрного колдуна (Борис Рыцарев, фэнтези, приключения, семейный, 197 ...
  • Сотрудник ЧК (Борис Волчек, боевик, история, 1963) [DVDRip, Не требуется]
  • Славный малый (Борис Барнет, военный, 1943) [DVDRip, Не требуется]
  • Скверный анекдот (Александр Алов, Владимир Наумов, комедия, 1966) [DVDRip, ...
  • Снежная королева (Геннадий Казанский, фэнтези, драма, приключения, семейный ...
  • Вертикаль (Станислав Говорухин Борис Дуров драма 1966)[DVDRip]
  • Чудак-человек (Владимир Кочетов, комедия, 1962) [DVDRip, Не требуется]
  • Дядюшкин сон (Константин Воинов, драма, 1966) [DVDRip, Не требуется]
  • Мексиканец (Владимир Каплуновский, драма, 1955) [DVDRip, Не требуется]
  • Информация
    Посетители, находящиеся в группе Гости, не могут оставлять комментарии к данной публикации.