вход на сайт

Имя пользователя :
Пароль :

Восстановление пароля Регистрация
Воры в законе (Юрий Кара, триллер, криминал, 1988) [DVDRip, Профессиональный (полное дублирование)]
Рейтинг:
(голосов: 1)



[img]{THEME}/images/logopost.png[/img]



Воры в законе

Год выпуска: 1988
Страна: СССР
Производство: Студия Горького, Ладья
Жанр: триллер, криминал

Режиссёр: Юрий Кара
В ролях: Анна Самохина, Борис Щербаков, Валентин Гафт, Владимир Стеклов, Арнис Лицитис, Зиновий Гердт, Гия Лежава, Амаяк Акопян, Станислав Коренев, Константин Кищук

Перевод: Профессиональный (полное дублирование)
Субтитры: Отсутствуют

Описание:
Актуальный для конца восьмидесятых остросоциальный боевик о советской коррупции, расцветшей в благоприятных условиях черноморского побережья и паралича власти. Гангстерская история «из жизни кавказской мафии», где двое главарей враждующих группировок из южного приморского городка борются за сферы влияния. В эту борьбу оказывается, втянута роковая красавица Рита, повторившая на свой лад судьбу Кармен.


Дополнительно:
MediaInfo ▼Text
Общее
Полное имя :L:Воры в законеVory v zakone.avi
Формат :AVI
Размер :742 MiB
Продолжительность :01:29:21.189
Общий поток :1 162 Kbps
Программа кодирования :VirtualDubMod 1.5.10.2 (build 2540/release)
Библиотека кодирования :VirtualDubMod build 2540/release

Видео
Идентификатор :0
Формат :MPEG-4 Visual
Профиль формата :Advanced [email protected]
Параметр BVOP формата :1
Параметр Qpel формата :No
Параметр GMC формата :0
Параметр Matrix формата :Default (MPEG)
Идентификатор кодека :XVID
Продолжительность :1h 29mn 21s 189ms
Битрейт :1 024 Kbps
Ширина :640 pixels
Высота :384 pixels
Соотношение сторон :1.667
Частота кадров :23.976 fps
Глубина цвета :8 bits
Подвыборка цветности :4:2:0
Цветовое пространство :YUV
Тип развертки :Progressive
Бит/(Пиксели*Кадры) :0.174
Размер потока :655 MiB (88%)
Библиотека кодирования :XviD0047

Аудио #1
Идентификатор :1
Формат :MPEG Audio
Идентификатор кодека :55
Продолжительность :01:29:21.048
Вид битрейта :Constant
Битрейт :128 Kbps
Канал(ы) :2 channels
Частота :48.0 KHz
Метод сжатия :Lossy
Размер потока :81.8 MiB (11%)



Тех. данные:
Качес
f106b58318feb0083c1a14fd737775549ac46a64Воры в законе (Юрий Кара, триллер, криминал, 1988) [DVDRip, Профессиональный (полное дублирование)] Воры в законе (Юрий Кара, триллер, криминал, 1988) [DVDRip, Профессиональный (полное дублирование)] " />

Аплоадер: Админ, дата: 11-05-2013, 12:23, торрент скачан: 359 раз

Понравилась раздача? Посмотрите эти:
  • Вас вызывает Таймыр (Алексей Коренев, комедия, 1970) [DVDRip, Не требуется] ...
  • "Мерседес" уходит от погони (Юрий Ляшенко, военный, 1980) [DVDRip, Не требу ...
  • Защитник Седов (Евгений Цымбал, драма, 1988) [DVDRip, Не требуется]
  • Завтра была война (Юрий Кара, драма, семейный, военный, 1987) [DVDRip, Не т ...
  • Девушка со швейной машинкой (Михаил Чиаурели, Георгий Шенгелая, комедия, 19 ...
  • Гнездо на ветру (Олав Неуланд, драма, 1979) [DVDRip, Профессиональный (полн ...
  • Стрелы Робин Гуда (Сергей Тарасов, боевик, приключения, история, 1975) [DVD ...
  • Украденный поезд (Владимир Янчев, драма, 1971) [DVDRip, Профессиональный (п ...
  • Летучая мышь (Реставрация) (Ян Фрид, мюзикл, комедия, 1978) [DVDRip, Профес ...
  • Время цыган / Dom za vesanje (Эмир Кустурица, фэнтези, драма, комедия, крим ...
  • Черная гора (Александр Згуриди, драма, семейный, 1972) [DVDRip, Профессиона ...
  • Пропавшая грамота (Борис Ивченко, фэнтези, комедия, 1972) [DVDRip, Професси ...
  • Непобедимый (Юрий Борецкий, боевик, 1983) [DVDRip, Не требуется]
  • Последний переход (Амангельды Тажбаев, боевик, 1981) [DVDRip, Профессиональ ...
  • Воры в законе (Юрий Кара) [1988 г., Драма, Криминал, DVDRip]
  • Как украсть миллион / How to steal a million (Уильям Уайлер, комедия, крими ...
  • Свидетель обвинения / Witness for the Prosecution (Билли Уайлдер, триллер, ...
  • Афера / The Sting (Джордж Рой Хилл, комедия, криминал, 1973) [HDRip, Профес ...
  • Отражение. Воры в законе (Документальный, 2006) [TVRip, Не требуется]
  • Трюкач / The Stunt Man (2 части из 2-х) (Ричард Раш, боевик, триллер, комед ...
  • Мальчишки с улицы Пал / A pal-utcai fiuk (Золтан Фабри, драма, 1968) [DVDRi ...
  • Пассажирка / Pasazerka (Анджей Мунк, Витольд Лесевич, драма, военный, истор ...
  • Братья по крови / Blutsbruder (Вернер В. Валльрот, драма, вестерн, 1975) [D ...
  • Скандал в Клошмерле / Clochemerle (Пьер Шеналь, комедия, 1948) [DVDRip, Про ...
  • Драконы навсегда / Fei lung mang jeung (Саммо Хунг Кам-Бо, Кори Юэнь, боеви ...
  • Информация
    Посетители, находящиеся в группе Гости, не могут оставлять комментарии к данной публикации.