вход на сайт

Имя пользователя :
Пароль :

Восстановление пароля Регистрация
Добро пожаловать или Посторонним вход воспрещён (Элем Климов, Комедия, семейный, 1964) [BDRip-AVC, Не требуется]
Рейтинг:
(голосов: 1)



[img]{THEME}/images/logopost.png[/img]



Добро пожаловать или Посторонним вход воспрещён

Год выпуска: 1964
Страна: СССР
Производство: Мосфильм
Жанр: Комедия, семейный

Режиссёр: Элем Климов
В ролях: Евгений Евстигнеев, Арина Алейникова, Илья Рутберг, Лидия Смирнова, Алексей Смирнов, Витя Косых, Юра Бондаренко, Лида Волкова, Боря Демб, Серёжа Кокорев, Игорь Крюков, Саша Машовец, Таня Прохорова, Люда Смеян, Слава Царёв, Татьяна Барышева, Екатерина Мазурова, Виктор Уральский, Нина Шацкая, Володя Бурдуков, Саша Живейнов, Алик Минкович, Серёжа Шаппу, Саша Байков, Володя Широков, Раднэр Муратов, Виктор Маркин, Дая Смирнова

Перевод: Не требуется
Субтитры: Отсутствуют

Описание: Пионер Костя Иночкин, будучи в пионерском лагере, переплыл реку и оказался на запретной для посещений территории, за что и был изгнан его начальником товарищем Дыниным. Не желая доводить бабушку до инфаркта своим досрочным прибытием, мальчик тайно возвращается в лагерь, где пионеры так же тайно содержат его и предпринимают все меры, чтобы не состоялся родительский день. Ведь именно в этот день Костина бабушка заявится в лагерь…



Качество: BDRip-AVC | Сэмпл |
Продолжительность: 01:13:10 час.


Формат: MKV
Видео кодек: x264
Аудио кодек: AC3
Видео: 768 x 560 (1.371), 23.976 fps, x264 ~2 751kbps avg, 0.267 bit/pixel
Аудио: 48 kHz, AC3 Dolby Digital, 1/0 (C) ch, ~96 kbps

Дата премьеры (мир): 9 октября 1964

MediaInfo ▼
General
Unique ID : 187210300028737892896860897145511059000 (0x8CD7646BF5378138AA3623CEF6D59E38)
Complete name : D:Добро пожаловать или Посторонним вход воспрещен.mkv
Format : Matroska
Format version : Version 2
File size : 1.46 GiB
Duration : 1h 13mn
Overall bit rate mode : Variable
Overall bit rate : 2 853 Kbps
Encoded date : UTC 2013-05-22 11:45:31
Writing application : mkvmerge v5.8.0 (No Sleep / Pillow) built on Sep 2 2012 15:37:04
Writing library : libebml v1.2.3 + libmatroska v1.3.0

Video
ID : 1
Format : AVC
Format/Info : Advanced Video Codec
Format profile : [email protected]
Format settings, CABAC : Yes
Format settings, ReFrames : 11 frames
Codec ID : V_MPEG4/ISO/AVC
Duration : 1h 13mn
Bit rate mode : Variable
Bit rate : 2 751 Kbps
Maximum bit rate : 40.0 Mbps
Width : 768 pixels
Height : 560 pixels
Display aspect ratio : 1.371
Frame rate : 23.976 fps
Color space : YUV
Chroma subsampling : 4:2:0
Bit depth : 8 bits
Scan type : Progressive
Bits/(Pixel*Frame) : 0.267
Stream size : 1.38 GiB (95%)
Writing library : x264 core 130 r2273 b3065e6
Encoding settings : cabac=1 / ref=11 / deblock=1:-2:-2 / analyse=0x3:0x113 / me=umh / subme=11 / psy=1 / psy_rd=0.70:0.00 / mixed_ref=1 / me_range=48 / chroma_me=1 / trellis=2 / 8x8dct=1 / cqm=0 / deadzone=21,11 / fast_pskip=0 / chroma_qp_offset=-2 / threads=6 / lookahead_threads=1 / sliced_threads=0 / nr=0 / decimate=1 / interlaced=0 / bluray_compat=0 / constrained_intra=0 / bframes=10 / b_pyramid=2 / b_adapt=2 / b_bias=0 / direct=3 / weightb=1 / open_gop=0 / weightp=2 / keyint=240 / keyint_min=24 / scenecut=40 / intra_refresh=0 / rc_lookahead=60 / rc=2pass / mbtree=0 / bitrate=2751 / ratetol=1.0 / qcomp=0.70 / qpmin=0 / qpmax=69 / qpstep=4 / cplxblur=20.0 / qblur=0.5 / vbv_maxrate=25000 / vbv_bufsize=31250 / nal_hrd=none / ip_ratio=1.40 / pb_ratio=1.30 / aq=2:0.8
Default : Yes
Forced : No

Audio
ID : 2
Format : AC-3
Format/Info : Audio Coding 3
Mode extension : CM (complete main)
Codec ID : A_AC3
Duration : 1h 13mn
Bit rate mode : Constant
Bit rate : 96.0 Kbps
Channel(s) : 1 channel
Channel positions : Front: C
Sampling rate : 48.0 KHz
Bit depth : 16 bits
Compression mode : Lossy
Stream size : 50.2 MiB (3%)
Language : Russian
Default : Yes
Forced : No

Menu
00:00:00.000 : en:00:00:00.000
00:03:39.636 : en:00:03:39.636
00:07:41.252 : en:00:07:41.252
00:13:04.617 : en:00:13:04.617
00:16:49.592 : en:00:16:49.592
00:23:13.517 : en:00:23:13.517
00:26:13.489 : en:00:26:13.489
00:33:42.437 :
13e47fc301266aad0aa3ad5d5a98cac331955910Добро пожаловать или Посторонним вход воспрещён (Элем Климов, Комедия, семейный, 1964) [BDRip-AVC, Не требуется] Добро пожаловать или Посторонним вход воспрещён (Элем Климов, Комедия, семейный, 1964) [BDRip-AVC, Не требуется] " />

Аплоадер: Админ, дата: 25-05-2013, 20:44, торрент скачан: 359 раз

Понравилась раздача? Посмотрите эти:
  • FLO / NRG [2012, Pop, Dance, MasterRip]
  • Brit Smith feat. Will.i.am / Provocative (Explicit) [2013, Hip-Hop, HDRip]
  • Иллюзия обмана / Now You See Me [Theatrical Cut] (Луи Летерье / Louis Leter ...
  • Zомби каникулы (Кирилл Кемниц, Ужасы, триллер, комедия, 2013) [BDRip 720p, ...
  • Добро пожаловать в капкан / Welcome to the Punch (Эрен Криви, боевик, трил ...
  • UFC The Ultimate 100 Knockouts - PPV [MMA,2013, HDTVRip 720p]
  • UFC - Best Of 2012 Year In Review[MMA,2013, BDRip 540p]
  • Добро пожаловать, или Посторонним вход воспрещен (Элем Климов, Комедия, сем ...
  • О чём молчат девушки (Карен Оганесян, Комедия, 2013) [BDRip-AVC, Не требует ...
  • Добро пожаловать, или Посторонним вход воспрещён (Элем Климов, комедия, сем ...
  • Зубная фея 2 / Tooth Fairy 2 (Алекс Замм, комедия, семейный, 2012) [BDRip 7 ...
  • Добро пожаловать, или Посторонним вход воспрещен (Элем Климов) [1964 г., Ко ...
  • Добро пожаловать или соседям вход воспрещен / Deck the Halls (Джон Уайтселл ...
  • Любовь С Препятствиями / Un Bonheur Narrive Jamais Seul (Джеймс Хат, Мелодр ...
  • Добро пожаловать, или Соседям вход воспрещен / Deck the Halls (Джон Уайтсел ...
  • [3D] Кот и цыплёнок / I Tawt I Taw а Puddy Tat (Мэттью ОКаллаган / Matthew ...
  • Мой парень из зоопарка / Zookeeper (Фрэнк Корачи, мелодрама, комедия, семей ...
  • Mylene Farmer / Du Temps [2011, Pop, HDTVRip]
  • Mylene Farmer / Bleu Noir [2011, Pop, HDTVRip]
  • Добро пожаловать, или Посторонним вход воспрещен (Реставрация) (Элем Климов ...
  • Информация
    Посетители, находящиеся в группе Гости, не могут оставлять комментарии к данной публикации.