вход на сайт

Имя пользователя :
Пароль :

Восстановление пароля Регистрация
Соломенная шляпка (2 серии) (Леонид Квинихидзе, мюзикл, комедия, 1974) [DVDRip-AVC, не требуется]
Рейтинг:
(голосов: 1)



[img]{THEME}/images/logopost.png[/img]



«Соломенная шляпка»

Год выпуска: 1974
Страна:СССР
Производство: Ленфильм
Жанр: мюзикл, комедия

Режиссёр: Леонид Квинихидзе
В ролях: Андрей Миронов(Леонидос Фадинар, рантье), Владислав Стржельчик(Антуан Петипьер Нонанкур, батька невесты), Зиновий Гердт(месье Тардюво), Ефим Копелян(месье Бопертюи), Людмила Гурченко(мадам Клара Бокардон), Екатерина Васильева(Анаис, мадам Бопертюи), Алиса Фрейндлих(Баронесса де Шампеньи), Михаил Козаков(Виконт), Игорь Кваша(Эмиль Тавернье), Александр Бениаминов(дядя суженого), Владимир Татосов(Феликс), Ирина Магуто(Вирджини)

Перевод: не требуется
Субтитры: нет

Описание
Герой фильма вынужден жениться, так как у него полно долгов, а 24 франка в день составляют 8000 с лишним франков в год одной только ренты, и к тому же на браке настаивает отец невесты, но в дело вмешивается лошадь, предпочитающая итальянскую соломку.



Тех.Данные
Качество: DVDRip-AVC
Продолжительность: ~ 01:03:30 + 01:03:42 часа

Формат: MKV
Видео кодек: AVC
Аудио кодек: AC3
Видео: 720x576 (4:3), 25.000 fps, AVC ~2010 kbps avg, 0.194 bit/pixel
Аудио: 48.00 kHz, AC3 Dolby Digital, 3/2 (L,C,R,l,r) + L,F,E ch, ~448 kbps avg

Информация MediaInfo ▼TextОбщее
Уникальный идентификатор : 255096234257504726028431176331130289357 (0xBFE9BF6465C566F48BADE12ABD43BCCD)
Полное имя : E:DownloadsСоломенная шляпка.1974.DVDRip-AVC2.Соломенная шляпка.1974.DVDRip-AVC.mkv
Формат : Matroska
Версия формата : Version 2
Размер файла : 1,09 Гбайт
Продолжительность : 1 ч. 3 м.
Общий поток : 2460 Кбит/сек
Дата кодирования : UTC 2013-08-04 07:48:21
Программа кодирования : mkvmerge v5.0.1 (Es ist Sommer) built on Nov 6 2011 16:23:40
Библиотека кодирования : libebml v1.2.2 + libmatroska v1.3.0

Видео
Идентификатор : 1
Формат : AVC
Формат/Информация : Advanced Video Codec
Профиль формата : [email protected]
Параметр CABAC формата : Да
Параметр ReFrames формата : 11 кадров
Идентификатор кодека : V_MPEG4/ISO/AVC
Продолжительность : 1 ч. 3 м.
Битрейт : 2010 Кбит/сек
Ширина : 720 пикселей
Высота : 576 пикселей
Соотношение сторон : 4:3
Частота кадров : 25,000 кадров/сек
Стандарт вещания : PAL
Цветовое пространство : YUV
Субдискретизация насыщенности : 4:2:0
Битовая глубина : 8 бит
Тип развёртки : Прогрессивная
Бит/(Пиксели*Кадры) : 0.194
Размер потока : 895 Мбайт (80%)
Библиотека кодирования : x264 core 130 r2273 b3065e6
Настройки программы : cabac=1 / ref=11 / deblock=1:-2:-1 / analyse=0x3:0x113 / me=umh / subme=9 / psy=1 / psy_rd=1.00:0.15 / mixed_ref=1 / me_range=32 / chroma_me=1 / trellis=1 / 8x8dct=1 / cqm=0 / deadzone=21,11 / fast_pskip=0 / chroma_qp_offset=-3 / threads=3 / lookahead_threads=1 / sliced_threads=0 / nr=0 / decimate=0 / interlaced=0 / bluray_compat=0 / constrained_intra=0 / bframes=8 / b_pyramid=2 / b_adapt=2 / b_bias=0 / direct=3 / weightb=1 / open_gop=0 / weightp=2 / keyint=250 / keyint_min=25 / scenecut=40 / intra_refresh=0 / rc_lookahead=60 / rc=2pass / mbtree=1 / bitrate=2010 / ratetol=1.0 / qcomp=0.60 / qpmin=0 / qpmax=69 / qpstep=4 / cplxblur=20.0 / qblur=0.5 / ip_ratio=1.40 / aq=1:1.00
Default : Да
Forced : Нет

Аудио
Идентификатор : 2
Формат : AC-3
Формат/Информация : Audio Coding 3
Расширение режима : CM (complete main)
Идентификатор кодека : A_AC3
Продолжительность : 1 ч. 3 м.
Вид битрейта : Постоянный
Битрейт : 448 Кбит/сек
Каналы : 6 каналов
Расположение каналов : Front: L C R, Side: L R, LFE
Частота : 48,0 КГц
Битовая глубина : 16 бит
Метод сжатия : С потерями
Размер потока : 204 Мбайт (18%)
Default : Да
Forced : Нет



c0fc7ff014252712130402c6a85a2df0af5b9f23Соломенная шляпка (2 серии) (Леонид Квинихидзе, мюзикл, комедия, 1974) [DVDRip-AVC, не требуется] Соломенная шляпка (2 серии) (Леонид Квинихидзе, мюзикл, комедия, 1974) [DVDRip-AVC, не требуется] " />

Аплоадер: Админ, дата: 5-08-2013, 13:39, торрент скачан: 359 раз

Понравилась раздача? Посмотрите эти:
  • Мэрайа Мунди и шкатулка Мидаса / The Adventurer: The Curse of the Midas Box ...
  • Усатый нянь (Владимир Грамматиков, комедия, семейный, 1977) [DVDRip-AVC, Не ...
  • Интимные места (Наталья Меркулова, Алексей Чупов, драма, мелодрама, 2013) [ ...
  • Д`Артаньян и три мушкетера (3 серии) (Георгий Юнгвальд-Хилькевич, мюзикл, п ...
  • Марафон (Карен Оганесян, комедия, 2013) [DVDRip-AVC, Не требуется]
  • Игра в правду (Виктор Шамиров, комедия, 2013) [DVDRip-AVC, Не требуется]
  • Незнакомец внутри / The Stranger Within (Adam Neutzsky-Wulff, триллер, 2013 ...
  • Не бойся, я с тобой! (Юлий Гусман, мюзикл, боевик, мелодрама, комедия, прик ...
  • А зори здесь тихие... // Эпизоды с 1 по 12 (из 12) (Боевик, драма, военный ...
  • Гараж (Эльдар Рязанов, драма, комедия, 1979) [DVDRip-AVC, Оригинал (русский ...
  • Земля Санникова (Альберт С. Мкртчян, Леонид Попов, приключения, 1973) [DVDR ...
  • Кавказский пленник (Сергей Бодров, драма, военный, 1996) [DVDRip-AVC, не тр ...
  • Огонь Кристиана Лубутена 3D / FEU: Crazy Horse Paris (Бруно Халлин, Докумен ...
  • 21 и больше / 21 & Over (Джон Лукас, Скотт Мур, комедия, 2013) [DVDRip-AVC, ...
  • Чемпионат Англии 2012-2013 / 25-й тур / Обзор / Суббота / BBC Sport [2013 г ...
  • Соломенная шляпка (Леонид Квинихидзе, Комедия, 1974) [DVDRip, Оригинал, рес ...
  • День учителя (Сергей Мокрицкий, драма, 2012) [DVDRip-AVC, Не требуется]
  • Котенок с улицы Лизюкова (Вячеслав Котеночкин, Мультфильм, 1988) [DVDRip-AV ...
  • Лоракс: Серенада / The Lorax: Serenade (Кайл Балда, мультфильм, комедия, му ...
  • VA (Korn, Flyleaf, Deftones, Dir En Grey, 10 Years, Stone Sour, Deadsy) / F ...
  • Информация
    Посетители, находящиеся в группе Гости, не могут оставлять комментарии к данной публикации.