вход на сайт

Имя пользователя :
Пароль :

Восстановление пароля Регистрация
Гараж (Эльдар Рязанов, драма, комедия, 1979) [DVDRip-AVC, Оригинал (русский)]
Рейтинг:
(голосов: 1)



[img]{THEME}/images/logopost.png[/img]



«Гараж»

¤Информация о фильме¤
Год выпуска: 1979
Страна:СССР
Производство: Мосфильм
Жанр: драма, комедия

Режиссёр: Эльдар Рязанов / Eldar Ryazanov
В ролях: Валентин Гафт, Ия Саввина, Лия Ахеджакова, Андрей Мягков, Георгий Бурков, Светлана Немоляева, Леонид Марков, Вячеслав Невинный, Анастасия Вознесенская, Глеб Стриженов

Перевод: Оригинал (русский)
Субтитры: нет


Описание
¤ ¤ ¤
- ...На заседании гаражного кооператива предстоит выбрать четырех «крайних», которые должны сами отказаться от будущего собственного гаража. Что чувствуешь, голосуя за список отверженных, в котором нет твоей фамилии? Неловкость и облегчение. А если фамилия есть? Смирись, ведь все уже согласовано. Но произошел бунт... -
¤ ¤ ¤

---------------------------------------------

---------------------------------------------¤Тех.Данные¤
Качество: DVDRip-AVC
Продолжительность: ~ 01:35:36 часа

Формат: Matroska-MKV-
Видео кодек: AVC [email protected]
Аудио кодек: Audio Coding 3
Видео: 1024x576 (16:9), 25 fps, AVC [email protected] ~1750 kbps avg, 0.119 bit/pixel
Аудио: 48 kHz, AC3 Dolby Digital, 3/2 (L,C,R,l,r) + L,F,E ch, ~448 kbps

Информация MediaInfo ▼TextОбщее
Уникальный идентификатор : 211065317588874674177846933378348477508 (0x9EC9B397E718ADE0B33FC08E4445EC44)
Полное имя : E:DownloadsГараж.1979.DVDRip-AVC.mkv
Формат : Matroska
Версия формата : Version 2
Размер файла : 1,47 Гбайт
Продолжительность : 1 ч. 35 м.
Общий поток : 2200 Кбит/сек
Дата кодирования : UTC 2013-07-09 08:49:28
Программа кодирования : mkvmerge v5.8.0 (No Sleep / Pillow) built on Sep 2 2012 15:37:04
Библиотека кодирования : libebml v1.2.3 + libmatroska v1.3.0

Видео
Идентификатор : 1
Формат : AVC
Формат/Информация : Advanced Video Codec
Профиль формата : [email protected]
Параметр CABAC формата : Да
Параметр ReFrames формата : 4 кадра
Идентификатор кодека : V_MPEG4/ISO/AVC
Продолжительность : 1 ч. 35 м.
Битрейт : 1750 Кбит/сек
Ширина : 1024 пикселя
Высота : 576 пикселей
Соотношение сторон : 16:9
Частота кадров : 25,000 кадров/сек
Цветовое пространство : YUV
Субдискретизация насыщенности : 4:2:0
Битовая глубина : 8 бит
Тип развёртки : Прогрессивная
Бит/(Пиксели*Кадры) : 0.119
Размер потока : 1,14 Гбайт (78%)
Библиотека кодирования : x264 core 125 r2208 d9d2288
Настройки программы : cabac=1 / ref=3 / deblock=1:-1:-1 / analyse=0x3:0x111 / me=umh / subme=9 / psy=1 / psy_rd=1.00:0.15 / mixed_ref=1 / me_range=32 / chroma_me=1 / trellis=2 / 8x8dct=1 / cqm=0 / deadzone=21,11 / fast_pskip=0 / chroma_qp_offset=-3 / threads=12 / lookahead_threads=2 / sliced_threads=0 / nr=0 / decimate=1 / interlaced=0 / bluray_compat=0 / constrained_intra=0 / bframes=3 / b_pyramid=2 / b_adapt=0 / b_bias=0 / direct=1 / weightb=1 / open_gop=0 / weightp=2 / keyint=250 / keyint_min=25 / scenecut=40 / intra_refresh=0 / rc_lookahead=50 / rc=2pass / mbtree=1 / bitrate=1750 / ratetol=1.0 / qcomp=0.60 / qpmin=0 / qpmax=69 / qpstep=4 / cplxblur=20.0 / qblur=0.5 / ip_ratio=1.40 / aq=1:1.00
Default : Да
Forced : Нет

Аудио
Идентификатор : 2
Формат : AC-3
Формат/Информация : Audio Coding 3
Расширение режима : CM (complete main)
Идентификатор кодека : A_AC3
Продолжительность : 1 ч. 35 м.
Вид битрейта : Постоянный
Битрейт : 448 Кбит/сек
Каналы : 6 каналов
Расположение каналов : Front: L C R, Side: L R, LFE
Частота : 48,0 КГц
Битовая глубина : 16 бит
Метод сжатия : С потерями
Размер потока : 306 Мбайт (20%)
Default : Да
Forced : Нет

Доп.Скриншоты ▼



&n
c05337c3043c24b08445af679e3c73f9221faaddГараж (Эльдар Рязанов, драма, комедия, 1979) [DVDRip-AVC, Оригинал (русский)] Гараж (Эльдар Рязанов, драма, комедия, 1979) [DVDRip-AVC, Оригинал (русский)] " />

Аплоадер: Админ, дата: 10-07-2013, 17:31, торрент скачан: 359 раз

Понравилась раздача? Посмотрите эти:
  • [NG] Комета века / Comet of the century (документальный, 2013) [HDTVRip-AVC ...
  • Усатый нянь (Владимир Грамматиков, комедия, семейный, 1977) [DVDRip-AVC, Не ...
  • Интимные места (Наталья Меркулова, Алексей Чупов, драма, мелодрама, 2013) [ ...
  • Башня / The Tower (Чи-хун Ким, драма, 2012) [BDRip-AVC, Любительский (двухг ...
  • Голодная жена и горячий любовник / La moglie in bianco... lamante al pepe ( ...
  • Земля Чато / Chatos Land (Майкл Уиннер, вестерн, 1972) [DVDRip-AVC, Професс ...
  • Обман Обамы / The Obama Deception: The Mask Comes Off (Документальный, 2009 ...
  • Голливудский мусор / Garbage (Филипп Волкен, драма, комедия, 2013) [HDTVRip ...
  • Гараж (Эльдар Рязанов, драма, комедия, 1979) [HDTV 1080i, Не требуется, Суб ...
  • [NG] Война львов / Lion Battle Zone (документальный, 2011) [HDTVRip-AVC, Пр ...
  • Новые технологии войны / The New Technology of War [Часть 1] (документальны ...
  • Новые технологии войны / The New Technology of War [Часть 2] (документальны ...
  • Даю год / I Give It a Year (Дэн Мазер, мелодрама, комедия, 2012) [BDRip-AVC ...
  • Дикий запад. Кино и реальность / The Wild And The West (документальный, 200 ...
  • Толстяк на ринге / Here Comes the Boom (Фрэнк Корачи, Боевик, комедия, 2012 ...
  • Суррогат / The Sessions (Бен Луин, Драма, 2012) [BDRip-AVC, Профессиональны ...
  • Мертвое поле (Александр Аравин, Драма, военный, 2006) [DVDRip-AVC, Оригинал ...
  • Чемпионат Англии 2012-2013 / 25-й тур / Обзор / Суббота / BBC Sport [2013 г ...
  • Гараж ( Эльдар Рязанов , Комедия, Драма, 1979) [DVDRip-AVC, не требуется]
  • Эд Вуд / Ed Wood (Тим Бёртон, драма, комедия, биография, 1994) [BDRip-AVC, ...
  • Небеса обетованные (Эльдар Рязанов, драма, комедия, 1991) [DVDRip-AVC, Не т ...
  • Помогите Стать Отцом / Not Suitable For Children (Питер Темплмен, Мелодрама ...
  • Котенок с улицы Лизюкова (Вячеслав Котеночкин, Мультфильм, 1988) [DVDRip-AV ...
  • Лоракс: Серенада / The Lorax: Serenade (Кайл Балда, мультфильм, комедия, му ...
  • Гараж (Эльдар Рязанов, Комедия, драма, 1979) [DVDRip]
  • Информация
    Посетители, находящиеся в группе Гости, не могут оставлять комментарии к данной публикации.