вход на сайт

Имя пользователя :
Пароль :

Восстановление пароля Регистрация
Жаворонок (Никита Курихин, Леонид Менакер, драма, военный, 1964) [DVDRip, Не требуется]
Рейтинг:
(голосов: 1)



[img]{THEME}/images/logopost.png[/img]



Жаворонок

Год выпуска: 1964
Страна: СССР
Производство: Ленфильм
Жанр: драма, военный

Режиссёр: Никита Курихин, Леонид Менакер
В ролях: Вячеслав Гуренков, Геннадий Юхтин, Валерий Погорельцев, Валентинс Скулме, Бруно Оя, Эрвин Абель, Жанис Катлап, Хейно Мандри, Гунар Плаценс, Олев Тинн

Перевод: Не требуется
Субтитры: Отсутствуют

Описание:
События развиваются в тылу фашисткой германии. Минуя засады, группе советских танкистов удается бежать из фашистского плена. Уходя на танке от погони и нанося последние удары по противнику…


Дополнительно:
MediaInfo ▼Text
Общее
Полное имя :K:Жаворонокhavoronok.avi
Формат :AVI
Размер :745 MiB
Продолжительность :01:25:37.848
Общий поток :1 216 Kbps
Программа кодирования :VirtualDubModRus 1.5.10.2 (build 2542/release)
Библиотека кодирования :VirtualDubMod build 2542/release

Видео
Идентификатор :0
Формат :MPEG-4 Visual
Параметр BVOP формата :1
Параметр Qpel формата :No
Параметр GMC формата :0
Параметр Matrix формата :Default (H.263)
Идентификатор кодека :DX50
Продолжительность :1h 25mn 37s 840ms
Битрейт :1 078 Kbps
Ширина :640 pixels
Высота :480 pixels
Соотношение сторон :1.333
Частота кадров :25.000 fps
Глубина цвета :8 bits
Подвыборка цветности :4:2:0
Цветовое пространство :YUV
Тип развертки :Progressive
Бит/(Пиксели*Кадры) :0.140
Размер потока :660 MiB (89%)
Библиотека кодирования :DivX503b2676p

Аудио #1
Идентификатор :1
Формат :MPEG Audio
Идентификатор кодека :55
Продолжительность :01:25:37.848
Вид битрейта :Constant
Битрейт :128 Kbps
Канал(ы) :2 channels
Частота :48.0 KHz
Метод сжатия :Lossy
Размер потока :78.4 MiB (11%)



Тех. данные:
Качество:DVDRip
Продолжительность:01:25:38 час

Формат: AVI
Видео кодек: DivX
Аудио кодек: MPA1L3
Видео: 640 x 480 (4:3), 25.000 fps, 1 078 Kbps, 0.140 bit/pixel
Аудио : 48.0 KHz, , 2 channels (), 128 Kbps



60330e621ee15bd2c621e5af8f366cca4c5c3b9dЖаворонок (Никита Курихин, Леонид Менакер, драма, военный, 1964) [DVDRip, Не требуется] Жаворонок (Никита Курихин, Леонид Менакер, драма, военный, 1964) [DVDRip, Не требуется] " />

Аплоадер: Админ, дата: 25-06-2013, 23:04, торрент скачан: 359 раз

Понравилась раздача? Посмотрите эти:
  • Нейтральные воды (Владимир Беренштейн, драма, 1968) [DVDRip, Не требуется]
  • Молодая жена (Леонид Менакер, драма, мелодрама, 1978) [DVDRip, Не требуется ...
  • Ко мне, Мухтар! (Семен Туманов, В. Тиунова, драма, 1964) [DVDRip, Не требуе ...
  • Полонез Огинского (Лев Голуб, драма, военный, 1971) [DVDRip, Не требуется]
  • Путь в "Сатурн" (Виллен Азаров, военный, 1967) [DVDRip, Не требуется]
  • Оптимистическая трагедия (Самсон Самсонов, драма, военный, история, 1963) [ ...
  • Не забудь... станция Луговая (Никита Курихин, Леонид Менакер, драма, мелодр ...
  • Комиссар (Александр Аскольдов, драма, военный, 1967) [DVDRip, Не требуется] ...
  • Эскадрон гусар летучих (Никита Хубов, Станислав Ростоцкий, военный, 1980) [ ...
  • Ты и я (Лариса Шепитько, драма, 1971) [DVDRip, Не требуется]
  • Чудный характер (Константин Воинов, драма, 1970) [DVDRip, Не требуется]
  • Сибириада (4 части из 4) (Андрей Кончаловский, драма, военный, история, 197 ...
  • Председатель (2 части из 2) (Алексей Салтыков, драма, 1964) [DVDRip, Не тре ...
  • Тихий Дон (3 части из 3) (Сергей Герасимов, драма, военный, 1957) [DVDRip, ...
  • В лесах под Ковелем (3 части из 3) (Юрий Тупицкий, военный, история, 1984) ...
  • Жаворонок (Н.Курихин, Л.Менакер, Драма, военный, 1964) [DVDRip]
  • Болотные солдаты (Александр Мачерет, драма, военный, 1938) [DVDRip, Не треб ...
  • Донская повесть (Владимир Фетин, драма, 1964) [DVDRip, Не требуется]
  • Голубая стрела (Леонид Эстрин, боевик, 1958) [DVDRip, Не требуется]
  • Мичман Панин (Михаил Швейцер, приключения, военный, история, 1960) [DVDRip, ...
  • Информация
    Посетители, находящиеся в группе Гости, не могут оставлять комментарии к данной публикации.