вход на сайт

Имя пользователя :
Пароль :

Восстановление пароля Регистрация
Дружок (Виктор Эйсымонт, семейный, 1958) [DVDRip, Не требуется]
Рейтинг:
(голосов: 1)



[img]{THEME}/images/logopost.png[/img]



Дружок

Год выпуска: 1958
Страна: СССР
Производство: Студия Горького
Жанр: семейный

Режиссёр: Виктор Эйсымонт
В ролях: Виктор Коваль, Анатолий Птичкин, Ольга Эсальнек, Марина Орданская, Федор Никитин, Зоя Фёдорова, Агрий Аугшкап, С. Беляева, Георгий Гумилевский, Александра Денисова

Перевод: Не требуется
Субтитры: Отсутствуют

Описание:
Веселые дачные приключения восьмилетних друзей — Миши и Коли, а также их лохматого приятеля — верного и терпеливого Дружка.


Дополнительно:
MediaInfo ▼Text
Общее
Полное имя :K:ДружокDrujok.avi
Формат :AVI
Размер :600 MiB
Продолжительность :01:03:31.800
Общий поток :1 321 Kbps
Программа кодирования :VirtualDubMod 1.5.4.1 (build 2178/release)
Библиотека кодирования :VirtualDubMod build 2178/release

Видео
Идентификатор :0
Формат :MPEG-4 Visual
Параметр BVOP формата :1
Параметр Qpel формата :No
Параметр GMC формата :0
Параметр Matrix формата :Default (H.263)
Идентификатор кодека :DX50
Продолжительность :1h 3mn 31s 800ms
Битрейт :1 185 Kbps
Ширина :720 pixels
Высота :544 pixels
Соотношение сторон :1.324
Частота кадров :25.000 fps
Глубина цвета :8 bits
Подвыборка цветности :4:2:0
Цветовое пространство :YUV
Тип развертки :Progressive
Бит/(Пиксели*Кадры) :0.121
Размер потока :539 MiB (90%)
Библиотека кодирования :DivX503b2559p

Аудио #1
Идентификатор :1
Формат :MPEG Audio
Идентификатор кодека :55
Продолжительность :01:03:31.800
Вид битрейта :Constant
Битрейт :128 Kbps
Канал(ы) :2 channels
Частота :48.0 KHz
Метод сжатия :Lossy
Размер потока :58.2 MiB (10%)
Язык :English



Тех. данные:
Качество:DVDRip
Продолжительность:01:03:30 час

Формат: AVI
Видео кодек: DivX
Аудио кодек: MPA1L3
Видео: 720 x 544 (4:3), 25.000 fps, 1 185 Kbps, 0.121 bit/pixel
Аудио : 48.0 KHz, , 2 channels (), 128 Kbps



5e7999c2d7ad39fa447a4426d45fbab471a3cfd0Дружок (Виктор Эйсымонт, семейный, 1958) [DVDRip, Не требуется] Дружок (Виктор Эйсымонт, семейный, 1958) [DVDRip, Не требуется] " />

Аплоадер: Админ, дата: 25-06-2013, 23:02, торрент скачан: 359 раз

Понравилась раздача? Посмотрите эти:
  • Каштанка (Роман Балаян, приключения, 1975) [DVDRip, Не требуется]
  • Где это видано, где это слыхано (Валентин Горлов, короткометражка, комедия, ...
  • Чиполлино (Тамара Лисициан, семейный, 1973) [DVDRip, Не требуется]
  • Рыжик (Илья Фрэз, приключения, семейный, 1960) [DVDRip, Не требуется]
  • Приключения Толи Клюквина (Виктор Эйсымонт, комедия, семейный, 1964) [DVDRi ...
  • Князь Удача Андреевич (Геннадий Байсак, комедия, криминал, семейный, 1989) ...
  • Капитанская дочка (Владимир Каплуновский, драма, 1958) [DVDRip, Не требуетс ...
  • Печники (Виктор Храмов, драма, 1982) [DVDRip, Не требуется]
  • Четвертый перископ (Виктор Эйсымонт, приключения, 1942) [DVDRip, Не требует ...
  • Судьба барабанщика (Виктор Эйсымонт, драма, приключения, 1956) [DVDRip, Не ...
  • Новые похождения Кота в сапогах // Марья-искусница (Александр Роу, фэнтези, ...
  • Славный малый (Борис Барнет, военный, 1943) [DVDRip, Не требуется]
  • Уходя - уходи (Виктор Трегубович, комедия, 1978) [DVDRip, Не требуется]
  • ЧП – Чрезвычайное происшествие (2 части из 2-х) (Виктор Ивченко, боевик, 19 ...
  • Белая акация (Георгий Натансон, комедия, 1958) [DVDRip, Не требуется]
  • Шофер поневоле (Надежда Кошеверова, комедия, 1958) [DVDRip, Не требуется]
  • Золотая речка (Вениамин Дорман, приключения, 1977) [DVDRip, Не требуется]
  • Александр Попов (Виктор Эйсымонт, Герберт Раппапорт, драма, биография, 1949 ...
  • В добрый час! (Виктор Эйсымонт, драма, мелодрама, 1956) [DVDRip, Не требует ...
  • Мамлюк (Давит Рондели, боевик, мелодрама, приключения, военный, 1958) [DVDR ...
  • Информация
    Посетители, находящиеся в группе Гости, не могут оставлять комментарии к данной публикации.