вход на сайт

Имя пользователя :
Пароль :

Восстановление пароля Регистрация
За облаками – небо (Юрий Егоров, драма, 1973) [DVDRip, Не требуется]
Рейтинг:
(голосов: 1)



[img]{THEME}/images/logopost.png[/img]



За облаками – небо

Год выпуска: 1973
Страна: СССР
Производство: Студия Горького
Жанр: драма

Режиссёр: Юрий Егоров
В ролях: Геннадий Сайфулин, Сергей Никоненко, Лариса Малеванная, Игорь Ясулович, Наина Хонина, Елена Санаева, Михаил Глузский, Владислав Дворжецкий, Юрий Назаров, Николай Волков

Перевод: Не требуется
Субтитры: Отсутствуют

Описание:
Фильм посвящен летчикам-испытателям и конструкторам которые в первые послевоенные годы рискуя жизнью осваивали новую реактивную технику.


Дополнительно:
MediaInfo ▼Text
Общее
Полное имя :D:. РАЗДАЧАЗа облаками небоa oblakami nebo.DVDRip.avi
Формат :AVI
Размер :1.37 GiB
Продолжительность :01:35:47.000
Общий поток :2 041 Kbps
Программа кодирования :VirtualDubModRus 1.5.10.2 (build 2542/release)
Библиотека кодирования :VirtualDubMod build 2542/release

Видео
Идентификатор :0
Формат :MPEG-4 Visual
Параметр BVOP формата :1
Параметр Qpel формата :No
Параметр GMC формата :0
Параметр Matrix формата :Default (H.263)
Идентификатор кодека :DX50
Продолжительность :1h 35mn 47s 0ms
Битрейт :1 775 Kbps
Ширина :720 pixels
Высота :368 pixels
Соотношение сторон :1.957
Частота кадров :25.000 fps
Глубина цвета :8 bits
Подвыборка цветности :4:2:0
Цветовое пространство :YUV
Тип развертки :Progressive
Бит/(Пиксели*Кадры) :0.268
Размер потока :1.19 GiB (87%)
Библиотека кодирования :DivX503b2676p

Аудио #1
Идентификатор :1
Формат :AC-3
Формат/Информация :Audio Coding 3
Идентификатор кодека :2000
Продолжительность :01:35:46.592
Вид битрейта :Constant
Битрейт :256 Kbps
Канал(ы) :2 channels
Расположение каналов :Front: L R
Частота :48.0 KHz
Битовая глубина :16 bits
Метод сжатия :Lossy
Размер потока :175 MiB (13%)Тех. данные:
Качество:DVDRip
Продолжительность:01:35:40 час

Формат: AVI
Видео кодек: DivX
Аудио кодек: A
c0ec120321e6efa193f0838aea00715ecd6fe822За облаками – небо (Юрий Егоров, драма, 1973) [DVDRip, Не требуется] За облаками – небо (Юрий Егоров, драма, 1973) [DVDRip, Не требуется] " />

Аплоадер: Админ, дата: 6-12-2012, 20:18, торрент скачан: 359 раз

Понравилась раздача? Посмотрите эти:
  • На подмостках сцены (Константин Юдин, драма, комедия, 1956) [DVDRip, Не тре ...
  • Если ты прав... (Юрий Егоров, мелодрама, 1963) [DVDRip, Не требуется]
  • Человек, которому везло (Константин Ершов, драма, 1978) [DVDRip, Не требует ...
  • Открытая книга (Владимир Фетин, драма, биография, 1973) [DVDRip, Не требуе ...
  • Нейтральные воды (Владимир Беренштейн, драма, 1968) [DVDRip, Не требуется]
  • Начало (Глеб Панфилов, мелодрама, комедия, 1970) [DVDRip, Не требуется]
  • Ко мне, Мухтар! (Семен Туманов, В. Тиунова, драма, 1964) [DVDRip, Не требуе ...
  • Дама с собачкой (Иосиф Хейфиц, драма, мелодрама, 1959) [DVDRip, Не требуетс ...
  • Выстрел (Наум Трахтенберг, драма, 1966) [DVDRip, Не требуется]
  • Четвертый (Александр Столпер, драма, 1972) [DVDRip, Не требуется]
  • Совсем пропащий (Георгий Данелия, приключения, 1973) [DVDRip, Не требуется] ...
  • Плохой хороший человек (Иосиф Хейфиц, драма, история, 1973) [DVDRip, Не тре ...
  • Ох, уж эта Настя! (Юрий Победоносцев, семейный, 1972) [DVDRip, Не требуется ...
  • Балтийское небо (2 части из 2) (Владимир Венгеров, драма, военный, история, ...
  • Фантазеры (Исаак Магитон, И. Сафарова, детский, 1965) [DVDRip, Не требуется ...
  • Ты и я (Лариса Шепитько, драма, 1971) [DVDRip, Не требуется]
  • Чайка (Юлий Карасик, драма, 1972) [DVDRip, Не требуется]
  • Непобедимый (Юрий Борецкий, боевик, 1983) [DVDRip, Не требуется]
  • Бабушки надвое сказали (Валерий Харченко, Юрий Клебанов, комедия, 1979) [DV ...
  • Чучело (2 части из 2) (Ролан Быков, Аркадий Хайт, драма, 1983) [DVDRip, Не ...
  • Табор уходит в небо (Эмиль Лотяну, мюзикл, драма, мелодрама, 1976) [DVDRip, ...
  • Путь корабля (Юрий Тарич, драма, приключения, 1935) [DVDRip, Не требуется]
  • Садко (Александр Птушко, фэнтези, приключения, 1952) [DVDRip, Не требуется] ...
  • В лесах под Ковелем (3 части из 3) (Юрий Тупицкий, военный, история, 1984) ...
  • Фонтан (Юрий Мамин, комедия, 1989) [DVDRip, Не требуется]
  • Информация
    Посетители, находящиеся в группе Гости, не могут оставлять комментарии к данной публикации.