вход на сайт

Имя пользователя :
Пароль :

Восстановление пароля Регистрация
Целуются зори (Сергей Никоненко, комедия, 1978) [DVDRip, Не требуется]
Рейтинг:
(голосов: 1)



[img]{THEME}/images/logopost.png[/img]



Целуются зори

Год выпуска: 1978
Страна: СССР
Производство: Мосфильм
Жанр: комедия

Режиссёр: Сергей Никоненко
В ролях: Борис Сабуров, Иван Рыжов, Андрей Смоляков, Мария Скворцова, Елена Рубцова, Екатерина Воронина, Анатолий Переверзев, Михаил Кокшенов, Борис Левинсон, Сергей Никоненко

Перевод: Не требуется
Субтитры: Отсутствуют

Описание:
Колхозник Егорыч, бригадир Николай Иванович и тракторист Лешка приезжают в город, где попадают в курьезные ситуации.


Дополнительно:
MediaInfo ▼Text
Общее
Полное имя :D:. РАЗДАЧАЦелуются зориCeluyutsya.zori.mkv
Формат :Matroska
Размер :1.48 GiB
Продолжительность :01:11:35.280
Общий поток :2 962 Kbps
Программа кодирования :XviD4PSP 6.0 / 54.4.100
Библиотека кодирования :XviD4PSP 6.0 / 54.4.100

Видео
Идентификатор :1
Формат :MPEG-4 Visual
Профиль формата :Advanced [email protected]
Параметр BVOP формата :Yes
Параметр Qpel формата :No
Параметр GMC формата :0
Параметр Matrix формата :Default (H.263)
Идентификатор кодека :V_MPEG4/ISO/ASP
Продолжительность :1h 11mn 35s 280ms
Битрейт :2 519 Kbps
Ширина :704 pixels
Высота :576 pixels
Соотношение сторон :1.302
Частота кадров :25.000 fps
Глубина цвета :8 bits
Подвыборка цветности :4:2:0
Цветовое пространство :YUV
Тип развертки :Progressive
Бит/(Пиксели*Кадры) :0.248
Размер потока :1.26 GiB (85%)
Библиотека кодирования :XviD0064

Аудио #1
Идентификатор :2
Формат :AC-3
Формат/Информация :Audio Coding 3
Идентификатор кодека :A_AC3
Продолжительность :01:11:35.280
Вид битрейта :Constant
Битрейт :384 Kbps
Канал(ы) :2 channels
Расположение каналов :Front: L R
Частота :48.0 KHz
Битовая глубина :16 bits
Метод сжатия :Lossy
Размер потока :197 MiB (13%)
Язык :English / RussianТех. данны
3c6eb210f1d7eae03fe245b631d192d47d61d154Целуются зори (Сергей Никоненко, комедия, 1978) [DVDRip, Не требуется] Целуются зори (Сергей Никоненко, комедия, 1978) [DVDRip, Не требуется] " />

Аплоадер: Админ, дата: 5-12-2012, 18:24, торрент скачан: 359 раз

Понравилась раздача? Посмотрите эти:
  • Человек, которому везло (Константин Ершов, драма, 1978) [DVDRip, Не требует ...
  • Гражданин Лёшка (Виктор Крючков, комедия, 1980) [DVDRip, Не требуется]
  • Цыганское счастье (Сергей Никоненко, драма, 1981) [DVDRip, Не требуется]
  • Таинственная находка (Борис Бунеев, детский, приключения, 1954) [DVDRip, Не ...
  • Баламут (Владимир Роговой, драма, комедия, 1978) [DVDRip, Не требуется]
  • Иван да Марья (Борис Рыцарев, фэнтези, мелодрама, комедия, семейный, музыка ...
  • Завтрак на траве (Николай Александрович, детский, комедия, 1979) [DVDRip, Н ...
  • Левша (Сергей Овчаров, драма, комедия, 1986) [DVDRip, Не требуется]
  • Комедия ошибок (2 части из 2) (Вадим Гаузнер, комедия, 1978) [DVDRip, Не тр ...
  • Ёлки-палки!.. (Сергей Никоненко, комедия, 1988) [DVDRip, Не требуется, Субт ...
  • Дуэнья (Михаил Григорьев, комедия, история, 1978) [DVDRip, Не требуется]
  • Первая перчатка (Андрей Фролов, мюзикл, мелодрама, комедия, спорт, 1946) [D ...
  • Небывальщина (Сергей Овчаров, комедия, 1983) [DVDRip, Не требуется]
  • Карусель (Михаил Швейцер, комедия, 1970) [DVDRip, Не требуется]
  • Степь (2 части из 2) (Сергей Бондарчук, драма, история, 1977) [DVDRip, Не т ...
  • Спортлото-82 (Леонид Гайдай, комедия, приключения, 1982) [DVDRip, Не требуе ...
  • Славный малый (Борис Барнет, военный, 1943) [DVDRip, Не требуется]
  • Уходя - уходи (Виктор Трегубович, комедия, 1978) [DVDRip, Не требуется]
  • Старомодная комедия (Эра Савельева, Татьяна Березанцева, мелодрама, 1978) [ ...
  • Пока безумствует мечта (Юрий Горковенко, комедия, приключения, 1978) [DVDRi ...
  • Целуются зори (Сергей Никоненко, Комедия, 1978) [DVDRip, Оригинал]
  • Живите в радости (Леонид Миллионщиков, комедия, 1978) [DVDRip, Не требуется ...
  • Гибель «Орла» (Василий Журавлев, приключения, 1940) [DVDRip, Не требуется]
  • Голубые молнии (Исаак Шмарук, драма, приключения, 1978) [DVDRip, Не требует ...
  • За облаками – небо (Юрий Егоров, драма, 1973) [DVDRip, Не требуется]
  • Информация
    Посетители, находящиеся в группе Гости, не могут оставлять комментарии к данной публикации.