вход на сайт

Имя пользователя :
Пароль :

Восстановление пароля Регистрация
Карьера Димы Горина (Фрунзе Довлатян, Лев Мирский, комедия, 1962) [DVDRip, Не требуется]
Рейтинг:
(голосов: 1)



[img]{THEME}/images/logopost.png[/img]



Карьера Димы Горина

Год выпуска: 1962
Страна: СССР
Производство: Студия Горького
Жанр: комедия

Режиссёр: Фрунзе Довлатян, Лев Мирский
В ролях: Татьяна Конюхова, Александр Демьяненко, Владимир Селезнев, Владимир Высоцкий, Евгений Кудряшёв, Николай Казаков, Алексей Ванин, Ровшан Алиев, Виталий Черменев, Ю. Каракаев

Перевод: Не требуется
Субтитры: Отсутствуют

Описание:
Из-за своей финансовой ошибки служащему сберкассы Диме Горину пришлось ехать на далекую сибирскую стройку, где он встретил совершенно незнакомую жизнь и девушку своей мечты…


Дополнительно:
MediaInfo ▼Text
Общее
Полное имя :D:. РАЗДАЧАКарьера Димы ГоринаKarera.Dimi.Gorina.1962.DVDRip.avi
Формат :AVI
Размер :1.37 GiB
Продолжительность :01:34:21.120
Общий поток :2 073 Kbps
Программа кодирования :VirtualDubMod 1.5.4.1 (build 2178/release)
Библиотека кодирования :VirtualDubMod build 2178/release

Видео
Идентификатор :0
Формат :MPEG-4 Visual
Профиль формата :Advanced [email protected]
Параметр BVOP формата :1
Параметр Qpel формата :No
Параметр GMC формата :0
Параметр Matrix формата :Custom
Идентификатор кодека :XVID
Продолжительность :1h 34mn 21s 120ms
Битрейт :1 682 Kbps
Ширина :720 pixels
Высота :544 pixels
Соотношение сторон :1.324
Частота кадров :25.000 fps
Глубина цвета :8 bits
Подвыборка цветности :4:2:0
Цветовое пространство :YUV
Тип развертки :Progressive
Бит/(Пиксели*Кадры) :0.172
Размер потока :1.11 GiB (81%)
Библиотека кодирования :XviD0050

Аудио #1
Идентификатор :1
Формат :AC-3
Формат/Информация :Audio Coding 3
Идентификатор кодека :2000
Продолжительность :01:34:21.120
Вид битрейта :Constant
Битрейт :384 Kbps
Канал(ы) :6 channels
Расположение каналов :Front: L C R, Side: L R, LFE
Частота :48.0 KHz
Битовая глубина :16 bits
Метод сжатия :Lossy
Размер потока :259 MiB (19%)
Язык &
08eee60662da7e8ae6487aa33b0e18fd57ccbc02Карьера Димы Горина (Фрунзе Довлатян, Лев Мирский, комедия, 1962) [DVDRip, Не требуется] Карьера Димы Горина (Фрунзе Довлатян, Лев Мирский, комедия, 1962) [DVDRip, Не требуется] " />

Аплоадер: Админ, дата: 5-12-2012, 18:07, торрент скачан: 359 раз

Понравилась раздача? Посмотрите эти:
  • Воздыхатель / Le soupirant (Пьер Этекс, комедия, 1962) [DVDRip, Профессиона ...
  • Братья Сарояны (Хорен Абрамян, Фрунзе Довлатян, Аркадий Айрапетян, драма, 1 ...
  • О чем шумит река (Григорий Мелик-Авакян, драма, 1959) [DVDRip, Не требуется ...
  • Дикая собака Динго (Юлий Карасик, драма, 1962) [DVDRip, Не требуется]
  • Два дня чудес (Лев Мирский, комедия, 1970) [DVDRip, Не требуется]
  • Ход конем (Татьяна Лукашевич, комедия, 1962) [DVDRip, Не требуется]
  • Тоска (Фрунзе Довлатян, драма, 1990) [DVDRip, Профессиональный (полное дубл ...
  • Тайна горного подземелья (Лев Мирский, детский, приключения, 1975) [DVDRip, ...
  • Путевка в Жизнь (Николай Экк, драма, 1931) [DVDRip, Не требуется]
  • Моя любовь (Владимир Корш-Саблин, мюзикл, мелодрама, комедия, 1940) [DVDRip ...
  • Левша (Сергей Овчаров, драма, комедия, 1986) [DVDRip, Не требуется]
  • Печёнка (Арман Манарян, короткометражка, комедия, 1962) [DVDRip, Не требует ...
  • Черная чайка (Григорий Колтунов, приключения, 1962) [DVDRip, Не требуется]
  • Порожний рейс (Владимир Венгеров, драма, 1962) [DVDRip, Не требуется]
  • Семь нянек (Ролан Быков, комедия, 1962) [DVDRip, Не требуется]
  • Дача (Константин Воинов, комедия, 1974) [DVDRip, Не требуется]
  • Небывальщина (Сергей Овчаров, комедия, 1983) [DVDRip, Не требуется]
  • Я, бабушка, Илико и Илларион (Тенгиз Абуладзе, мелодрама, комедия, 1962) [D ...
  • Приключения маленького папы (Дмитрий Крупко, детский, комедия, 1979) [DVDRi ...
  • Карьера Димы Горина (Фрунзе Довлатян, Лев Мирский) [1961 г., лирическая ком ...
  • Деловые люди (полная реставрация) (Леонид Гайдай, комедия, драма, 1962) [DV ...
  • Хозяин и слуга (Дмитрий Кесаянц, короткометражка, комедия, 1963) [DVDRip, Н ...
  • Взрослые дети (Виллен Азаров, драма, комедия, 1962) [DVDRip, Не требуется] ...
  • Чудак-человек (Владимир Кочетов, комедия, 1962) [DVDRip, Не требуется]
  • Как рождаются тосты (Всеволод Массино, Оскар Герц, Андрей Тутышкин, коротко ...
  • Информация
    Посетители, находящиеся в группе Гости, не могут оставлять комментарии к данной публикации.