вход на сайт

Имя пользователя :
Пароль :

Восстановление пароля Регистрация
Карантин (Илья Фрэз, комедия, 1983) [DVDRip, Не требуется]
Рейтинг:
(голосов: 1)



[img]{THEME}/images/logopost.png[/img]



Карантин

Год выпуска: 1983
Страна: СССР
Производство: Студия Горького
Жанр: комедия

Режиссёр: Илья Фрэз
В ролях: Айлика Кремер, Евгения Симонова, Юрий Дуванов, Светлана Немоляева, Юрий Богатырев, Татьяна Пельтцер, Павел Кадочников, Лидия Федосеева-Шукшина, Елена Соловей, Нина Архипова

Перевод: Не требуется
Субтитры: Отсутствуют

Описание:
Когда в детском саду объявили карантин, оказалось, что пятилетнюю Машу не у кого оставить, все заняты неотложными делами. Даже прабабушка и прадедушка тоже работают.

Поэтому Маша будет жить у родственников, друзей, коллег и случайных знакомых, а заодно, быть может, узнает много полезного, интересного и увлекательного.


Дополнительно:
MediaInfo ▼Text
Общее
Полное имя :D:. РАЗДАЧАКарантинKarantyn.avi
Формат :AVI
Размер :1.09 GiB
Продолжительность :01:16:19.008
Общий поток :2 053 Kbps
Программа кодирования :VirtualDubModRus 1.5.10.2 (build 2542/release)
Библиотека кодирования :VirtualDubMod build 2542/release

Видео
Идентификатор :0
Формат :MPEG-4 Visual
Параметр BVOP формата :1
Параметр Qpel формата :No
Параметр GMC формата :0
Параметр Matrix формата :Default (H.263)
Идентификатор кодека :DX50
Продолжительность :1h 16mn 19s 0ms
Битрейт :1 883 Kbps
Ширина :672 pixels
Высота :512 pixels
Соотношение сторон :1.313
Частота кадров :25.000 fps
Глубина цвета :8 bits
Подвыборка цветности :4:2:0
Цветовое пространство :YUV
Тип развертки :Progressive
Бит/(Пиксели*Кадры) :0.219
Размер потока :1.00 GiB (92%)
Библиотека кодирования :DivX503b1307p

Аудио #1
Идентификатор :1
Формат :MPEG Audio
Идентификатор кодека :55
Продолжительность :01:16:19.008
Вид битрейта :Constant
Битрейт :160 Kbps
Канал(ы) :2 channels
Частота :48.0 KHz
Метод сжатия :Lossy
Размер потока :87.3 MiB (8%)Тех. данные:
Качество:DVDRip
Продолжительность:01:16:18 час

Формат: AVI
Видео кодек: DivX
Аудио кодек: MPA1L3
Видео: 672 x 512 (4:3), 25.000 fps, 1 883
c1375076136bd8f927928f502445f3643e547594Карантин (Илья Фрэз, комедия, 1983) [DVDRip, Не требуется] Карантин (Илья Фрэз, комедия, 1983) [DVDRip, Не требуется] " />

Аплоадер: Админ, дата: 5-12-2012, 18:05, торрент скачан: 359 раз

Понравилась раздача? Посмотрите эти:
  • Необыкновенное путешествие Мишки Стрекачева (Илья Фрэз, Эдуард Бочаров, сем ...
  • Месье Ленуар, который... (2 части из 2) (Александр Орлов, телеспектакль, др ...
  • Рыжик (Илья Фрэз, приключения, семейный, 1960) [DVDRip, Не требуется]
  • Приключения Толи Клюквина (Виктор Эйсымонт, комедия, семейный, 1964) [DVDRi ...
  • Ох, уж эта Настя! (Юрий Победоносцев, семейный, 1972) [DVDRip, Не требуется ...
  • Первоклассница (Илья Фрэз, детский, 1948) [DVDRip, Не требуется]
  • Деревенский детектив (Иван Лукинский, комедия, криминал, 1968) [DVDRip, Не ...
  • Объяснение в любви (2 части из 2) (Илья Авербах, мелодрама, 1977) [DVDRip, ...
  • Рысь выходит на тропу (Агаси Бабаян, комедия, 1983) [DVDRip, Не требуется]
  • Это мы не проходили (Илья Фрэз, драма, 1975) [DVDRip, Не требуется]
  • Небывальщина (Сергей Овчаров, комедия, 1983) [DVDRip, Не требуется]
  • Чудак из пятого «Б» (Илья Фрэз, комедия, семейный, 1972) [DVDRip, Не требуе ...
  • Непобедимый (Юрий Борецкий, боевик, 1983) [DVDRip, Не требуется]
  • Бабушки надвое сказали (Валерий Харченко, Юрий Клебанов, комедия, 1979) [DV ...
  • Я вас любил... (Илья Фрэз, мелодрама, комедия, 1967) [DVDRip, Не требуется] ...
  • Фантазии Фарятьева (Илья Авербах, драма, комедия, 1979) [DVDRip, Не требует ...
  • Приключения желтого чемоданчика (Илья Фрэз, комедия, семейный, 1970) [DVDRi ...
  • При исполнении служебных обязанностей (Илья Гурин, фантастика, драма, 1963) ...
  • Карантин (Илья Фрэз, комедия,1983) [DVDRip, оригинал]
  • Карантин (Илья Фрэз, комедия,1983) [DVDRip, оригинал]
  • Информация
    Посетители, находящиеся в группе Гости, не могут оставлять комментарии к данной публикации.