вход на сайт

Имя пользователя :
Пароль :

Восстановление пароля Регистрация
Как рождаются тосты (Всеволод Массино, Оскар Герц, Андрей Тутышкин, короткометражка, комедия, 1962) [TVRip, Не требуется]
Рейтинг:
(голосов: 1)



[img]{THEME}/images/logopost.png[/img]



Как рождаются тосты

Год выпуска: 1962
Страна: СССР
Производство: Мосфильм
Жанр: короткометражка, комедия

Режиссёр: Всеволод Массино, Оскар Герц, Андрей Тутышкин
В ролях: Леонид Харитонов, Георгий Вицин, Алексей Грибов, Георгий Георгиу, Юрий Медведев, Дмитрий Масанов, Тамара Носова, Владимир Пицек, Павел Тарасов, Эмма Трейвас

Перевод: Не требуется
Субтитры: Отсутствуют

Описание:
Герои фильма готовятся к «корпоративной вечеринке».


Дополнительно:
MediaInfo ▼Text
Общее
Полное имя :D:. РАЗДАЧАКак рождаются тостыkak.rozhdajutsa.tosty.avi
Формат :AVI
Размер :484 MiB
Продолжительность :00:34:01.960
Общий поток :1 987 Kbps
Программа кодирования :VirtualDubMod 1.5.10.2 (build 2540/release)
Библиотека кодирования :VirtualDubMod build 2540/release

Видео
Идентификатор :0
Формат :MPEG-4 Visual
Профиль формата :Advanced [email protected]
Параметр BVOP формата :2
Параметр Qpel формата :No
Параметр GMC формата :0
Параметр Matrix формата :Default (MPEG)
Идентификатор кодека :XVID
Продолжительность :34mn 1s 960ms
Битрейт :1 849 Kbps
Ширина :640 pixels
Высота :480 pixels
Соотношение сторон :1.333
Частота кадров :25.000 fps
Глубина цвета :8 bits
Подвыборка цветности :4:2:0
Цветовое пространство :YUV
Тип развертки :Progressive
Бит/(Пиксели*Кадры) :0.241
Размер потока :450 MiB (93%)
Библиотека кодирования :XviD0046C

Аудио #1
Идентификатор :1
Формат :MPEG Audio
Идентификатор кодека :55
Продолжительность :00:34:01.944
Вид битрейта :Constant
Битрейт :128 Kbps
Канал(ы) :2 channels
Частота :48.0 KHz
Метод сжатия :Lossy
Размер потока :31.2 MiB (6%)Тех. данные:
Качество:TVRip
Продолжительность:00:34:00 час

Формат: AVI
Видео кодек: XviD
Аудио кодек: MPA1L3
Видео: 640 x 480 (4:3), 25.000 fps, 1 849 Kbps, 0.241 bit/pixel
Аудио : 48.0 KHz, , 2 channels (), 128 Kbps



3cf1d1421cfc4f0099650542fa4080b6ea59e075Как рождаются тосты (Всеволод Массино, Оскар Герц, Андрей Тутышкин, короткометражка, комедия, 1962) [TVRip, Не требуется] Как рождаются тосты (Всеволод Массино, Оскар Герц, Андрей Тутышкин, короткометражка, комедия, 1962) [TVRip, Не требуется] " />

Аплоадер: Админ, дата: 5-12-2012, 18:02, торрент скачан: 359 раз

Понравилась раздача? Посмотрите эти:
  • Где это видано, где это слыхано (Валентин Горлов, короткометражка, комедия, ...
  • Ход конем (Татьяна Лукашевич, комедия, 1962) [DVDRip, Не требуется]
  • Сегодня увольнения не будет (Александр Гордон, Андрей Тарковский, короткоме ...
  • Сапоги (Владимир Немоляев, короткометражка, драма, комедия, 1957) [DVDRip, ...
  • Драма (Герман Ливанов, короткометражка, комедия, 1960) [DVDRip, Не требуетс ...
  • К черному морю (Андрей Тутышкин, мелодрама, комедия, 1957) [DVDRip, не треб ...
  • Печёнка (Арман Манарян, короткометражка, комедия, 1962) [DVDRip, Не требует ...
  • Мы с вами где-то встречались (Николай Досталь, Андрей Тутышкин, комедия, 19 ...
  • Пес Барбос и необычный кросс / Самогонщики / «Сто грамм» для храбрости (Лео ...
  • Игра на миллионы (Геннадий Байсак, комедия, криминал, приключения, 1991) [T ...
  • Термометр (Рамаз Шарабидзе, короткометражка, 1976) [TVRip, Профессиональный ...
  • Удача (Баадур Цуладзе, короткометражка, комедия, 1980) [TVRip, Профессионал ...
  • Шельменко-денщик (Андрей Тутышкин, мюзикл, комедия, 1971) [DVDRip, Не требу ...
  • Деловые люди (полная реставрация) (Леонид Гайдай, комедия, драма, 1962) [DV ...
  • 01-99 (Амаси Мартиросян, короткометражка, комедия, 1959) [DVDRip, Не требуе ...
  • Хозяин и слуга (Дмитрий Кесаянц, короткометражка, комедия, 1963) [DVDRip, Н ...
  • Близнецы (Константин Юдин, комедия, 1945) [TVRip, Перевод, Не требуется]
  • Взрослые дети (Виллен Азаров, драма, комедия, 1962) [DVDRip, Не требуется] ...
  • Адмирал Нахимов (Всеволод Пудовкин, драма, военный, биография, история, 194 ...
  • Суворов (Михаил Доллер, Всеволод Пудовкин, драма, военный, биография, истор ...
  • Зверобой (2 части из 2) (Андрей Ростоцкий, приключения, 1990) [DVDRip, Не т ...
  • Ведьма (Александр Абрамов, короткометражка, драма, 1958) [TVRip, Не требует ...
  • Сердца четырех (Константин Юдин, мелодрама, комедия, 1941) [DVDRip, Не треб ...
  • К Черному морю (Андрей Тутышкин, мелодрама, комедия, 1957) [DVDRip, Не треб ...
  • Карьера Димы Горина (Фрунзе Довлатян, Лев Мирский, комедия, 1962) [DVDRip, ...
  • Информация
    Посетители, находящиеся в группе Гости, не могут оставлять комментарии к данной публикации.