вход на сайт

Имя пользователя :
Пароль :

Восстановление пароля Регистрация
К Черному морю (Андрей Тутышкин, мелодрама, комедия, 1957) [DVDRip, Не требуется]
Рейтинг:
(голосов: 1)



[img]{THEME}/images/logopost.png[/img]



К Черному морю

Год выпуска: 1957
Страна: СССР
Производство: Мосфильм
Жанр: мелодрама, комедия

Режиссёр: Андрей Тутышкин
В ролях: Изольда Извицкая, Анатолий Кузнецов, Евгений Самойлов, Евгения Мельникова, Евгений Тетерин, Вадим Грачев, Сергей Лукьянов, Леонид Пирогов, Нина Агапова, Юрий Леонидов

Перевод: Не требуется
Субтитры: Отсутствуют

Описание:
Ирина и Николай решают поехать на машине к Черному морю и по дороге отпраздновать свадьбу. Их преследует машина преподавателя Хохлова, который давно любит Ирину. Вскоре к ним присоединяется энергичная девушка. Эту четверку ожидает масса невероятных приключений!..


Дополнительно:
MediaInfo ▼Text
Общее
Полное имя :D:. РАЗДАЧАК Черному морюК Черному морю.1957.DivX.DVDRip.avi
Формат :AVI
Размер :1.09 GiB
Продолжительность :01:09:05.840
Общий поток :2 266 Kbps
Программа кодирования :VirtualDubModRus 1.5.10.2 (build 2542/release)
Библиотека кодирования :VirtualDubMod build 2542/release

Видео
Идентификатор :0
Формат :MPEG-4 Visual
Параметр BVOP формата :1
Параметр Qpel формата :No
Параметр GMC формата :0
Параметр Matrix формата :Default (H.263)
Идентификатор кодека :DX50
Продолжительность :1h 9mn 5s 840ms
Битрейт :1 872 Kbps
Ширина :704 pixels
Высота :528 pixels
Соотношение сторон :1.333
Частота кадров :25.000 fps
Глубина цвета :8 bits
Подвыборка цветности :4:2:0
Цветовое пространство :YUV
Тип развертки :Progressive
Бит/(Пиксели*Кадры) :0.201
Размер потока :925 MiB (83%)
Библиотека кодирования :DivX503b2676p

Аудио #1
Идентификатор :1
Формат :AC-3
Формат/Информация :Audio Coding 3
Идентификатор кодека :2000
Продолжительность :01:09:05.632
Вид битрейта :Constant
Битрейт :384 Kbps
Канал(ы) :2 channels
Расположение каналов :Front: L R
Частота :48.0 KHz
Битовая глубина :16 bits
Метод сжатия :Lossy
Размер потока :190 MiB (17%)Тех. данные:
Кач
e66f48161b37352ea8dbec7c4acf05aadc97dae5К Черному морю (Андрей Тутышкин, мелодрама, комедия, 1957) [DVDRip, Не требуется] К Черному морю (Андрей Тутышкин, мелодрама, комедия, 1957) [DVDRip, Не требуется] " />

Аплоадер: Админ, дата: 5-12-2012, 18:00, торрент скачан: 359 раз

Понравилась раздача? Посмотрите эти:
  • Наследница по прямой (Сергей Соловьев, мелодрама, 1982) [DVDRip, Не требует ...
  • Журавушка (Николай Москаленко, драма, мелодрама, 1968) [DVDRip, Не требуетс ...
  • Борец и клоун (Борис Барнет, Константин Юдин, драма, спорт, 1957) [DVDRip, ...
  • Начало (Глеб Панфилов, мелодрама, комедия, 1970) [DVDRip, Не требуется]
  • Летят журавли (Михаил Калатозов, драма, мелодрама, военный, 1957) [DVDRip, ...
  • Девушка без адреса (Эльдар Рязанов, мелодрама, комедия, 1957) [DVDRip, Не т ...
  • Дама с собачкой (Иосиф Хейфиц, драма, мелодрама, 1959) [DVDRip, Не требуетс ...
  • Высота (Александр Зархи, мелодрама, 1957) [DVDRip, Не требуется]
  • Сапоги (Владимир Немоляев, короткометражка, драма, комедия, 1957) [DVDRip, ...
  • Последняя жертва (Петр Тодоровский, драма, мелодрама, 1975) [DVDRip, Не тре ...
  • На графских развалинах (Владимир Скуйбин, приключения, семейный, 1957) [DVD ...
  • К черному морю (Андрей Тутышкин, мелодрама, комедия, 1957) [DVDRip, не треб ...
  • Мы с вами где-то встречались (Николай Досталь, Андрей Тутышкин, комедия, 19 ...
  • Сватовство гусара (Светлана Дружинина, мюзикл, мелодрама, комедия, 1979) [D ...
  • Рядом с нами (Адольф Бергункер, драма, 1957) [DVDRip, Не требуется]
  • Шельменко-денщик (Андрей Тутышкин, мюзикл, комедия, 1971) [DVDRip, Не требу ...
  • Старомодная комедия (Эра Савельева, Татьяна Березанцева, мелодрама, 1978) [ ...
  • Тихий Дон (3 части из 3) (Сергей Герасимов, драма, военный, 1957) [DVDRip, ...
  • Сердца четырех (Константин Юдин, мелодрама, комедия, 1941) [DVDRip, Не треб ...
  • Как рождаются тосты (Всеволод Массино, Оскар Герц, Андрей Тутышкин, коротко ...
  • Информация
    Посетители, находящиеся в группе Гости, не могут оставлять комментарии к данной публикации.