вход на сайт

Имя пользователя :
Пароль :

Восстановление пароля Регистрация
Сердца четырех (Константин Юдин, мелодрама, комедия, 1941) [DVDRip, Не требуется]
Рейтинг:
(голосов: 1)



[img]{THEME}/images/logopost.png[/img]



Сердца четырех

Год выпуска: 1941
Страна: СССР
Производство: Мосфильм
Жанр: мелодрама, комедия

Режиссёр: Константин Юдин
В ролях: Валентина Серова, Евгений Самойлов, Людмила Целиковская, Павел Шпрингфельд, Лиза Дмитриевская, Ирина Мурзаева, Андрей Тутышкин, Александр Антонов, Татьяна Барышева, Всеволод Санаев

Перевод: Не требуется
Субтитры: Отсутствуют

Описание:
В подмосковном дачном поселке расквартирован полк танкистов. Сюжет строится вокруг двух сестер, абсолютно разных, но одинаково влюбленных. Одна — серьезный математик, другая — легкомысленная стрекоза. В центре внимания девушек бравый военный. Жизенные перипетии, смешные и сложные ситуации, интриги, слезы, радость, но все строится вокруг одного — любви.


Дополнительно:
MediaInfo ▼Text
Общее
Полное имя :D:. РАЗДАЧАСердца четырехСердца четырех.avi
Формат :AVI
Размер :1.42 GiB
Продолжительность :01:29:39.560
Общий поток :2 260 Kbps
Программа кодирования :VirtualDubMod 1.5.10.2 (build 2540/release)
Библиотека кодирования :VirtualDubMod build 2540/release

Видео
Идентификатор :0
Формат :MPEG-4 Visual
Профиль формата :Advanced [email protected]
Параметр BVOP формата :2
Параметр Qpel формата :Yes
Параметр GMC формата :3
Параметр Matrix формата :Default (H.263)
Идентификатор кодека :XVID
Продолжительность :1h 29mn 39s 560ms
Битрейт :2 123 Kbps
Ширина :720 pixels
Высота :504 pixels
Соотношение сторон :1.429
Частота кадров :25.000 fps
Глубина цвета :8 bits
Подвыборка цветности :4:2:0
Цветовое пространство :YUV
Тип развертки :Progressive
Бит/(Пиксели*Кадры) :0.234
Размер потока :1.33 GiB (94%)
Библиотека кодирования :XviD0047

Аудио #1
Идентификатор :1
Формат :MPEG Audio
Идентификатор кодека :55
Продолжительность :01:29:39.504
Вид битрейта :Constant
Битрейт :128 Kbps
Канал(ы) :1 channel
Частота :48.0 KHz
Метод сжатия :Lossy
Размер потока :82.1 MiB (6%)Тех. данные:
Качество:DVDRip
Продолжительность
383c824ac708a6c37c4a5af84a70772c089158d7Сердца четырех (Константин Юдин, мелодрама, комедия, 1941) [DVDRip, Не требуется] Сердца четырех (Константин Юдин, мелодрама, комедия, 1941) [DVDRip, Не требуется] " />

Аплоадер: Админ, дата: 4-12-2012, 17:17, торрент скачан: 359 раз

Понравилась раздача? Посмотрите эти:
  • На подмостках сцены (Константин Юдин, драма, комедия, 1956) [DVDRip, Не тре ...
  • Борец и клоун (Борис Барнет, Константин Юдин, драма, спорт, 1957) [DVDRip, ...
  • Летят журавли (Михаил Калатозов, драма, мелодрама, военный, 1957) [DVDRip, ...
  • Девушка джигит (Павел Боголюбов, комедия, 1955) [DVDRip, Не требуется]
  • Иван да Марья (Борис Рыцарев, фэнтези, мелодрама, комедия, семейный, музыка ...
  • Опекун (Эдгар Ходжикян, Альберт С. Мкртчян, комедия, 1970) [DVDRip, Не треб ...
  • Капитанская дочка (Владимир Каплуновский, драма, 1958) [DVDRip, Не требуетс ...
  • Чудный характер (Константин Воинов, драма, 1970) [DVDRip, Не требуется]
  • Дача (Константин Воинов, комедия, 1974) [DVDRip, Не требуется]
  • Смелые люди (Константин Юдин, боевик, драма, военный, 1950) [DVDRip, Не тре ...
  • Шельменко-денщик (Андрей Тутышкин, мюзикл, комедия, 1971) [DVDRip, Не требу ...
  • Я вас любил... (Илья Фрэз, мелодрама, комедия, 1967) [DVDRip, Не требуется] ...
  • У меня есть лев (2 части из 2) (Константин Бромберг, драма, комедия, приклю ...
  • Старомодная комедия (Эра Савельева, Татьяна Березанцева, мелодрама, 1978) [ ...
  • Сердца четырёх (Константин Юдин, Комедия, 1941) [ DVDRip, (оригинал)]
  • Близнецы (Константин Юдин, комедия, 1945) [TVRip, Перевод, Не требуется]
  • Шведская спичка (Константин Юдин, комедия, детектив, 1955) [DVDRip, Не треб ...
  • Каин XVIII (Надежда Кошеверова, Михаил Шапиро, фэнтези, мелодрама, приключе ...
  • К Черному морю (Андрей Тутышкин, мелодрама, комедия, 1957) [DVDRip, Не треб ...
  • Как рождаются тосты (Всеволод Массино, Оскар Герц, Андрей Тутышкин, коротко ...
  • Информация
    Посетители, находящиеся в группе Гости, не могут оставлять комментарии к данной публикации.