вход на сайт

Имя пользователя :
Пароль :

Восстановление пароля Регистрация
Воскресенье, половина седьмого (4 части из 4) (Вадим Зобин, криминал, детектив, 1988) [DVDRip, Не требуется]
Рейтинг:
(голосов: 1)



[img]{THEME}/images/logopost.png[/img]



Воскресенье, половина седьмого (4 части из 4)

Год выпуска: 1988
Страна: СССР
Производство: ТО Экран
Жанр: криминал, детектив

Режиссёр: Вадим Зобин
В ролях: Василий Фунтиков, Александр Степанов, Владимир Юматов, Елена Костина, Гелена Кирик, Маргарита Борисова, Маргарита Шубина, Абрам Лифшиц, Петр Ступин, Владимир Топцов

Перевод: Не требуется
Субтитры: Отсутствуют

Описание:
Молодому юристу Сергею Крашенинникову поручают дело o гибeли дeвyшки. Расспрашивая людей, видевших девушку в день её гибели, Сергей начинает понимать, что ему многое не договаривают…


Дополнительно:
MediaInfo ▼Text
"1 часть" ▼Общее
Полное имя :K:2. РАЗДАЧАПриключения Кроша4. Воскресенье, половина седьмогоВоскресенье, половина седьмого.DVDRip1_Vosk_pol_sed`mogo_DVDRip.avi
Формат :AVI
Размер :875 MiB
Продолжительность :01:13:12.000
Общий поток :1 672 Kbps
Программа кодирования :VirtualDubModRus 1.5.10.2 (build 2542/release)
Библиотека кодирования :VirtualDubMod build 2542/release

Видео
Идентификатор :0
Формат :MPEG-4 Visual
Параметр BVOP формата :1
Параметр Qpel формата :No
Параметр GMC формата :0
Параметр Matrix формата :Default (H.263)
Идентификатор кодека :DX50
Продолжительность :1h 13mn 12s 0ms
Битрейт :1 470 Kbps
Ширина :688 pixels
Высота :512 pixels
Соотношение сторон :1.344
Частота кадров :25.000 fps
Глубина цвета :8 bits
Подвыборка цветности :4:2:0
Цветовое пространство :YUV
Тип развертки :Progressive
Бит/(Пиксели*Кадры) :0.167
Размер потока :770 MiB (88%)
Библиотека кодирования :DivX503b2676p

Аудио #1
Идентификатор :1
Формат :AC-3
Формат/Информация :Audio Coding 3
Идентификатор кодека :2000
Продолжительность :01:13:12.000
Вид битрейта :Constant
Битрейт :192 Kbps
Канал(ы) :2 channels
Расположение каналов :Front: L R
Частота :48.0 KHz
Битовая глубина :16 bits
Метод сжатия :Lossy
Размер потока :101 MiB (11%)
053c8415c9c927fb209d8143b871492a8416bfa7Воскресенье, половина седьмого (4 части из 4) (Вадим Зобин, криминал, детектив, 1988) [DVDRip, Не требуется] Воскресенье, половина седьмого (4 части из 4) (Вадим Зобин, криминал, детектив, 1988) [DVDRip, Не требуется] " />

Аплоадер: Админ, дата: 4-12-2012, 17:01, торрент скачан: 359 раз

Понравилась раздача? Посмотрите эти:
  • Дни хирурга Мишкина (3 части из 3) (Вадим Зобин, драма, 1967) [DVDRip, Не т ...
  • Будни и праздники Серафимы Глюкиной (2 части из 2) (Ростислав Горяев, драма ...
  • Ошибка резидента (2 части из 2) (Вениамин Дорман, детектив, 1968) [DVDRip, ...
  • Судьба резидента (2 части из 2) (Вениамин Дорман, детектив, приключения, 19 ...
  • Возвращение резидента (2 части из 2) (Вениамин Дорман, триллер, 1982) [DVDR ...
  • Бой после победы (2 части из 2) (Виллен Азаров, триллер, военный, 1972) [DV ...
  • Анискин и Фантомас (2 части из 2) (Михаил Жаров, Владимир Рапопорт, комедия ...
  • Комедия ошибок (2 части из 2) (Вадим Гаузнер, комедия, 1978) [DVDRip, Не тр ...
  • Карнавал (2 части из 2) (Татьяна Лиознова, мюзикл, комедия, 1981) [DVDRip, ...
  • Энергичные люди (2 части из 2) (Владимир Захаров, комедия, 1988) [DVDRip, Н ...
  • Степь (2 части из 2) (Сергей Бондарчук, драма, история, 1977) [DVDRip, Не т ...
  • Руслан и Людмила (2 части из 2) (Александр Птушко, фэнтези, детектив, 1972) ...
  • Ханума (2 части из 2) (Георгий Товстоногов, мюзикл, комедия, 1978) [DVDRip, ...
  • Приморский бульвар (2 части из 2) (Александр Полынников, мюзикл, комедия, 1 ...
  • Тихий Дон (3 части из 3) (Сергей Герасимов, драма, военный, 1957) [DVDRip, ...
  • Воскресенье, половина седьмого / 4 серии из 4/ (Вадим Зобин, детектив, 1988 ...
  • Джек-потрошитель / Jack the Ripper (2 части из 2) (Дэвид Уикс, триллер, дра ...
  • Гений (2 части из 2) (Виктор Сергеев, Комедия, криминал, 1991) [DVDRip, Не ...
  • Дядюшкин сон (2 части из2) (Александр Орлов, драма, комедия, 1981) [DVDRip, ...
  • Неизвестный солдат (3 части из 3) (Григорий Аронов, Вадим Зобин, драма, 198 ...
  • Информация
    Посетители, находящиеся в группе Гости, не могут оставлять комментарии к данной публикации.