вход на сайт

Имя пользователя :
Пароль :

Восстановление пароля Регистрация
Неизвестный солдат (3 части из 3) (Григорий Аронов, Вадим Зобин, драма, 1984) [DVDRip, Не требуется]
Рейтинг:
(голосов: 1)



[img]{THEME}/images/logopost.png[/img]



Неизвестный солдат (3 части из 3)

Год выпуска: 1984
Страна: СССР
Производство: ТО Экран
Жанр: драма

Режиссёр: Григорий Аронов, Вадим Зобин
В ролях: Василий Фунтиков, Николай Гринько, Людмила Новоселова, Роберт Спиричев, Юрий Оськин, Иван Шабалтас, Игорь Класс, Павел Белозеров, Артур Богатов, Эрнст Романов

Перевод: Не требуется
Субтитры: Отсутствуют

Описание:
Не попав в институт, Сергей Крашенинников приезжает к деду в небольшой городок и начинает работать в дорожной строительной бригаде. В ходе работ строители обнаруживают солдатскую могилу. Сергею поручают выяснить личность погибшего. Он начинает поиск…


Дополнительно:
MediaInfo ▼Text
"1 часть" ▼Общее
Полное имя :K:2. РАЗДАЧАПриключения Кроша3. Неизвестный солдатNeizvestniy_soldat1_Neizvestniy_soldat.avi
Формат :AVI
Размер :681 MiB
Продолжительность :01:06:54.048
Общий поток :1 423 Kbps
Программа кодирования :VirtualDubModRus 1.5.10.2 (build 2542/release)
Библиотека кодирования :VirtualDubMod build 2542/release

Видео
Идентификатор :0
Формат :MPEG-4 Visual
Параметр BVOP формата :1
Параметр Qpel формата :No
Параметр GMC формата :0
Параметр Matrix формата :Default (H.263)
Идентификатор кодека :DX50
Продолжительность :1h 6mn 54s 40ms
Битрейт :1 286 Kbps
Ширина :640 pixels
Высота :480 pixels
Соотношение сторон :1.333
Частота кадров :25.000 fps
Глубина цвета :8 bits
Подвыборка цветности :4:2:0
Цветовое пространство :YUV
Тип развертки :Progressive
Бит/(Пиксели*Кадры) :0.167
Размер потока :615 MiB (90%)
Библиотека кодирования :DivX503b2676p

Аудио #1
Идентификатор :1
Формат :MPEG Audio
Идентификатор кодека :55
Продолжительность :01:06:54.048
Вид битрейта :Constant
Битрейт :128 Kbps
Канал(ы) :2 channels
Частота :48.0 KHz
Метод сжатия :Lossy
Размер потока :61.2 MiB (9%)

"2 часть" ▼Общее
Полное имя :K:2. РАЗДАЧАПриключения Кроша3. Неизвестный солдатNeizvestniy_soldat2_Neizvestniy_so
4fc1527eddf00945d82c5b4f63d69939a4184feaНеизвестный солдат (3 части из 3) (Григорий Аронов, Вадим Зобин, драма, 1984) [DVDRip, Не требуется] Неизвестный солдат (3 части из 3) (Григорий Аронов, Вадим Зобин, драма, 1984) [DVDRip, Не требуется] " />

Аплоадер: Админ, дата: 4-12-2012, 16:58, торрент скачан: 359 раз

Понравилась раздача? Посмотрите эти:
  • Дни хирурга Мишкина (3 части из 3) (Вадим Зобин, драма, 1967) [DVDRip, Не т ...
  • Будни и праздники Серафимы Глюкиной (2 части из 2) (Ростислав Горяев, драма ...
  • Ошибка резидента (2 части из 2) (Вениамин Дорман, детектив, 1968) [DVDRip, ...
  • Возвращение резидента (2 части из 2) (Вениамин Дорман, триллер, 1982) [DVDR ...
  • Месье Ленуар, который... (2 части из 2) (Александр Орлов, телеспектакль, др ...
  • Макар-следопыт (3 части из 3) (Николай Ковальский, семейный, 1984) [DVDRip, ...
  • Зеленые цепочки (Григорий Аронов, приключения, 1970) [DVDRip, Не требуется] ...
  • Дон Сезар де Базан (2 части из 2) (Ян Фрид, мюзикл, комедия, 1989) [DVDRip, ...
  • Бой после победы (2 части из 2) (Виллен Азаров, триллер, военный, 1972) [DV ...
  • Жили-были старик со старухой (2 части из 2) (Григорий Чухрай, драма, 1964) ...
  • Объяснение в любви (2 части из 2) (Илья Авербах, мелодрама, 1977) [DVDRip, ...
  • Карнавал (2 части из 2) (Татьяна Лиознова, мюзикл, комедия, 1981) [DVDRip, ...
  • Каникулы Кроша (4 части из 4) (Григорий Аронов, приключения, семейный, 1980 ...
  • Челюскинцы (2 части из 2) (Михаил Ершов, приключения, 1984) [TVRip, Не треб ...
  • Степь (2 части из 2) (Сергей Бондарчук, драма, история, 1977) [DVDRip, Не т ...
  • Сибириада (4 части из 4) (Андрей Кончаловский, драма, военный, история, 197 ...
  • Ханума (2 части из 2) (Георгий Товстоногов, мюзикл, комедия, 1978) [DVDRip, ...
  • Председатель (2 части из 2) (Алексей Салтыков, драма, 1964) [DVDRip, Не тре ...
  • Тихий Дон (3 части из 3) (Сергей Герасимов, драма, военный, 1957) [DVDRip, ...
  • Подпольный обком действует (4 части из 4) (Анатолий Буковский, военный, 197 ...
  • В лесах под Ковелем (3 части из 3) (Юрий Тупицкий, военный, история, 1984) ...
  • Неизвестный солдат (3 серии из 3) (Григорий Аронов, Киноповесть, Драма, 198 ...
  • Гений (2 части из 2) (Виктор Сергеев, Комедия, криминал, 1991) [DVDRip, Не ...
  • Дядюшкин сон (2 части из2) (Александр Орлов, драма, комедия, 1981) [DVDRip, ...
  • Воскресенье, половина седьмого (4 части из 4) (Вадим Зобин, криминал, детек ...
  • Информация
    Посетители, находящиеся в группе Гости, не могут оставлять комментарии к данной публикации.