вход на сайт

Имя пользователя :
Пароль :

Восстановление пароля Регистрация
Мичман Панин (Михаил Швейцер, приключения, военный, история, 1960) [DVDRip, Не требуется]
Рейтинг:
(голосов: 1)



[img]{THEME}/images/logopost.png[/img]



Мичман Панин

Год выпуска: 1960
Страна: СССР
Производство: Мосфильм
Жанр: приключения, военный, история

Режиссёр: Михаил Швейцер
В ролях: Олег Голубицкий, Герман Качин, Леонид Кмит, Леонид Куравлёв, Николай Пажитнов, Иван Переверзев, Никита Подгорный, Владимир Покровский, Лев Поляков, Николай Сергеев

Перевод: Не требуется
Субтитры: Отсутствуют

Описание:
Только что произведенный в мичманы член подпольной организации Василий Панин участвует в спасении группы политзаключенных. Военный корабль, на который Панин получил назначение, уходит в загранплавание, а на борту у него — тринадцать беглецов. В любую минуту они могут быть обнаружены…


Дополнительно:
MediaInfo ▼Text
Общее
Полное имя :D:. РАЗДАЧАМичман ПанинMichman Panin.avi
Формат :AVI
Размер :1.37 GiB
Продолжительность :01:30:25.320
Общий поток :2 167 Kbps
Библиотека кодирования :VirtualDub build 24442/release

Видео
Идентификатор :0
Формат :MPEG-4 Visual
Параметр BVOP формата :1
Параметр Qpel формата :No
Параметр GMC формата :0
Параметр Matrix формата :Default (H.263)
Идентификатор кодека :DX50
Продолжительность :1h 30mn 25s 320ms
Битрейт :2 029 Kbps
Ширина :704 pixels
Высота :512 pixels
Соотношение сторон :1.375
Частота кадров :25.000 fps
Глубина цвета :8 bits
Подвыборка цветности :4:2:0
Цветовое пространство :YUV
Тип развертки :Progressive
Бит/(Пиксели*Кадры) :0.225
Размер потока :1.28 GiB (94%)
Библиотека кодирования :DivX503b1988p

Аудио #1
Идентификатор :1
Формат :MPEG Audio
Идентификатор кодека :55
Продолжительность :01:30:25.267
Вид битрейта :Constant
Битрейт :128 Kbps
Канал(ы) :2 channels
Частота :48.0 KHz
Метод сжатия :Lossy
Размер потока :82.8 MiB (6%)Тех. данные:
Качество:DVDRip
Продолжительность:01:30:20 час

Формат: AVI
Видео кодек: DivX
Аудио кодек: MPA1L3
Видео: 704 x 512 (1.375), 25.000 fps, 2 029 Kbps, 0.225 bit/pixel
Аудио : 48.0 KHz, , 2 channels (), 128 Kbps



d375a62a10b51606afa8665c18871d3ecc579039Мичман Панин (Михаил Швейцер, приключения, военный, история, 1960) [DVDRip, Не требуется] Мичман Панин (Михаил Швейцер, приключения, военный, история, 1960) [DVDRip, Не требуется] " />

Аплоадер: Админ, дата: 3-12-2012, 19:18, торрент скачан: 359 раз

Понравилась раздача? Посмотрите эти:
  • Жаворонок (Никита Курихин, Леонид Менакер, драма, военный, 1964) [DVDRip, Н ...
  • Бой под Соколом (Александр Разумный, военный, 1942) [DVDRip, Не требуется]
  • "Мерседес" уходит от погони (Юрий Ляшенко, военный, 1980) [DVDRip, Не требу ...
  • Летят журавли (Михаил Калатозов, драма, мелодрама, военный, 1957) [DVDRip, ...
  • Крепкий орешек (Теодор Вульфович, комедия, военный, 1967) [DVDRip, Не требу ...
  • Зимородок (Вячеслав Никифоров, военный, 1972) [DVDRip, Не требуется]
  • Рыжик (Илья Фрэз, приключения, семейный, 1960) [DVDRip, Не требуется]
  • Пётр Первый (Владимир Петров, драма, военный, биография, 1937) [DVDRip, Не ...
  • Путь в "Сатурн" (Виллен Азаров, военный, 1967) [DVDRip, Не требуется]
  • Балтийское небо (2 части из 2) (Владимир Венгеров, драма, военный, история, ...
  • Оптимистическая трагедия (Самсон Самсонов, драма, военный, история, 1963) [ ...
  • Повесть о «Неистовом» (Борис Бабочкин, драма, военный, 1947) [DVDRip, Перев ...
  • Эскадрон гусар летучих (Никита Хубов, Станислав Ростоцкий, военный, 1980) [ ...
  • Адъютант его превосходительства (5 частей из 5) (Евгений Ташков, мелодрама, ...
  • Карусель (Михаил Швейцер, комедия, 1970) [DVDRip, Не требуется]
  • Спортлото-82 (Леонид Гайдай, комедия, приключения, 1982) [DVDRip, Не требуе ...
  • Славный малый (Борис Барнет, военный, 1943) [DVDRip, Не требуется]
  • В лесах под Ковелем (3 части из 3) (Юрий Тупицкий, военный, история, 1984) ...
  • Крестоносцы / Krzyzacy (Александр Форд, драма, мелодрама, приключения, воен ...
  • Кортик (Михаил Швейцер, Владимир Венгеров, Приключения, 1955) [DVDRip, Не т ...
  • Адмирал Нахимов (Всеволод Пудовкин, драма, военный, биография, история, 194 ...
  • Александр Пархоменко (Леонид Луков, военный, биография, история, 1942) [DVD ...
  • Суворов (Михаил Доллер, Всеволод Пудовкин, драма, военный, биография, истор ...
  • Котовский (Александр Файнциммер, военный, биография, история, 1942) [DVDRip ...
  • Моонзунд (2 части из 2) (Александр Муратов, драма, мелодрама, военный, исто ...
  • Информация
    Посетители, находящиеся в группе Гости, не могут оставлять комментарии к данной публикации.