вход на сайт

Имя пользователя :
Пароль :

Восстановление пароля Регистрация
Возвращение Василия Бортникова (Всеволод Пудовкин, драма, 1953) [DVDRip, Не требуется]
Рейтинг:
(голосов: 1)



[img]{THEME}/images/logopost.png[/img]



Возвращение Василия Бортникова

Год выпуска: 1953
Страна: СССР
Производство: Мосфильм
Жанр: драма

Режиссёр: Всеволод Пудовкин
В ролях: Сергей Лукьянов, Наталья Медведева, Николай Тимофеев, Анатолий Чемодуров, Инна Макарова, Анатолий Игнатьев, Всеволод Санаев, Клара Лучко, Галина Степанова, Нонна Мордюкова

Перевод: Не требуется
Субтитры: Отсутствуют

Описание:
После контузии, пролежав несколько лет в госпитале, Василий возвращается в колхоз, где прежде был председателем. Жена, считая его погибшимии пережив потерю, привела в дом другого мужа. Возвращение Василия оказалось трудным для всех…


Дополнительно:
MediaInfo ▼Text
Общее
Полное имя :D:. РАЗДАЧАВозвращение Василия БортниковаVozvrashcheniye.Vasiliya.Bortnikova.avi
Формат :AVI
Размер :1.37 GiB
Продолжительность :01:41:55.200
Общий поток :1 921 Kbps
Программа кодирования :VirtualDubMod 1.5.10.2 (build 2540/release)

Видео
Идентификатор :0
Формат :MPEG-4 Visual
Параметр BVOP формата :1
Параметр Qpel формата :No
Параметр GMC формата :0
Параметр Matrix формата :Default (H.263)
Идентификатор кодека :DX50
Продолжительность :1h 41mn 55s 200ms
Битрейт :1 687 Kbps
Ширина :704 pixels
Высота :528 pixels
Соотношение сторон :1.333
Частота кадров :25.000 fps
Глубина цвета :8 bits
Подвыборка цветности :4:2:0
Цветовое пространство :YUV
Тип развертки :Progressive
Бит/(Пиксели*Кадры) :0.182
Размер потока :1.20 GiB (88%)
Библиотека кодирования :DivX503b1328p

Аудио #1
Идентификатор :1
Формат :AC-3
Формат/Информация :Audio Coding 3
Идентификатор кодека :2000
Продолжительность :01:41:55.040
Вид битрейта :Constant
Битрейт :224 Kbps
Канал(ы) :2 channels
Расположение каналов :Front: L R
Частота :48.0 KHz
Битовая глубина :16 bits
Метод сжатия :Lossy
Размер потока :163 MiB (12%)Тех. данные:
Качество:DVDRip
Продолжительность:01:41:50 час

Формат:
938d4731e69c6feee92d44f61ea56de99a242838Возвращение Василия Бортникова (Всеволод Пудовкин, драма, 1953) [DVDRip, Не требуется] Возвращение Василия Бортникова (Всеволод Пудовкин, драма, 1953) [DVDRip, Не требуется] " />

Аплоадер: Админ, дата: 3-12-2012, 18:57, торрент скачан: 359 раз

Понравилась раздача? Посмотрите эти:
  • Василий и Василиса (Ирина Поплавская, драма, мелодрама, биография, 1981) [D ...
  • Белорусский вокзал (Андрей Смирнов, драма, 1971) [DVDRip, Не требуется]
  • Защитник Седов (Евгений Цымбал, драма, 1988) [DVDRip, Не требуется]
  • Военно-полевой роман (Петр Тодоровский, драма, мелодрама, 1983) [DVDRip, Не ...
  • Старшина (Николай Кошелев, драма, 1979) [DVDRip, Не требуется]
  • Далеко от Москвы (Александр Столпер, драма, 1950) [DVDRip, Не требуется]
  • Оптимистическая трагедия (Самсон Самсонов, драма, военный, история, 1963) [ ...
  • Левша (Сергей Овчаров, драма, комедия, 1986) [DVDRip, Не требуется]
  • Коммунист (Юлий Райзман, драма, 1957) [DVDRip, Не требуется]
  • Капитанская дочка (Владимир Каплуновский, драма, 1958) [DVDRip, Не требуетс ...
  • Пропавшая грамота (Борис Ивченко, фэнтези, комедия, 1972) [DVDRip, Професси ...
  • Печники (Виктор Храмов, драма, 1982) [DVDRip, Не требуется]
  • Хозяйка гостиницы (Михаил Названов, комедия, 1956) [DVDRip, Не требуется]
  • Взрослые дети (Виллен Азаров, драма, комедия, 1962) [DVDRip, Не требуется] ...
  • Миллион в брачной корзине (Всеволод Шиловский, комедия, 1985) [DVDRip, Не т ...
  • Адмирал Нахимов (Всеволод Пудовкин, драма, военный, биография, история, 194 ...
  • Суворов (Михаил Доллер, Всеволод Пудовкин, драма, военный, биография, истор ...
  • Зверобой (2 части из 2) (Андрей Ростоцкий, приключения, 1990) [DVDRip, Не т ...
  • Максимка (Владимир Браун, приключения, 1953) [DVDRip, Не требуется]
  • Как рождаются тосты (Всеволод Массино, Оскар Герц, Андрей Тутышкин, коротко ...
  • Информация
    Посетители, находящиеся в группе Гости, не могут оставлять комментарии к данной публикации.