вход на сайт

Имя пользователя :
Пароль :

Восстановление пароля Регистрация
Ведьма (Александр Абрамов, короткометражка, драма, 1958) [TVRip, Не требуется]
Рейтинг:
(голосов: 1)



[img]{THEME}/images/logopost.png[/img]



Ведьма

Год выпуска: 1958
Страна: СССР
Производство: Ленфильм
Жанр: короткометражка, драма

Режиссёр: Александр Абрамов
В ролях: Эраст Гарин, Алла Ларионова, Николай Рыбников, Николай Кузьмин

Перевод: Не требуется
Субтитры: Отсутствуют

Описание:
Главный герой — молодой дьячок Савелий, взявший в жены красавицу Грушу, оказавшуюся не только неверной супругой, но и ведьмой в придачу. Тем не менее, светлый Савелий готов отпустить грехи супруге, а заодно и всем остальным, включая собственного соперника.


Дополнительно:
MediaInfo ▼Text
Общее
Полное имя :D:. РАЗДАЧАВедьмаvedma.avi
Формат :AVI
Размер :233 MiB
Продолжительность :00:29:10.400
Общий поток :1 118 Kbps
Программа кодирования :VirtualDubMod 1.5.10.1 (build 2439/release)
Библиотека кодирования :VirtualDubMod build 2439/release

Видео
Идентификатор :0
Формат :MPEG-4 Visual
Параметр BVOP формата :1
Параметр Qpel формата :No
Параметр GMC формата :2
Параметр Matrix формата :Default (H.263)
Идентификатор кодека :DX50
Продолжительность :29mn 10s 400ms
Битрейт :1 049 Kbps
Ширина :512 pixels
Высота :384 pixels
Соотношение сторон :1.333
Частота кадров :25.000 fps
Глубина цвета :8 bits
Подвыборка цветности :4:2:0
Цветовое пространство :YUV
Тип развертки :Progressive
Бит/(Пиксели*Кадры) :0.213
Размер потока :219 MiB (94%)
Библиотека кодирования :DivX503b1328m

Аудио #1
Идентификатор :1
Формат :MPEG Audio
Идентификатор кодека :55
Продолжительность :00:29:10.392
Вид битрейта :Constant
Битрейт :64.0 Kbps
Канал(ы) :1 channel
Частота :32.0 KHz
Метод сжатия :Lossy
Размер потока :13.4 MiB (6%)Тех. данные:
Качество:TVRip
Продолжительность:00:29:10 час

Формат: AVI
Видео кодек: DivX
Аудио кодек: MPA1L3
Видео: 512 x 384 (4:3), 25.000 fps, 1 049 Kbps, 0.213 bit/pixel
Аудио : 32.0 KHz, , 1 channel (), 64.0 Kbps



a8c24e1cb0f8840f71857400e8805bf72e6c2269Ведьма (Александр Абрамов, короткометражка, драма, 1958) [TVRip, Не требуется] Ведьма (Александр Абрамов, короткометражка, драма, 1958) [TVRip, Не требуется] " />

Аплоадер: Админ, дата: 3-12-2012, 18:53, торрент скачан: 359 раз

Понравилась раздача? Посмотрите эти:
  • Дружок (Виктор Эйсымонт, семейный, 1958) [DVDRip, Не требуется]
  • Подранки (Николай Губенко, драма, 1976) [DVDRip, Не требуется]
  • Бой под Соколом (Александр Разумный, военный, 1942) [DVDRip, Не требуется]
  • Где это видано, где это слыхано (Валентин Горлов, короткометражка, комедия, ...
  • Старшина (Николай Кошелев, драма, 1979) [DVDRip, Не требуется]
  • Сегодня увольнения не будет (Александр Гордон, Андрей Тарковский, короткоме ...
  • Путевка в Жизнь (Николай Экк, драма, 1931) [DVDRip, Не требуется]
  • Сапоги (Владимир Немоляев, короткометражка, драма, комедия, 1957) [DVDRip, ...
  • Далеко от Москвы (Александр Столпер, драма, 1950) [DVDRip, Не требуется]
  • Драма (Герман Ливанов, короткометражка, комедия, 1960) [DVDRip, Не требуетс ...
  • Капитанская дочка (Владимир Каплуновский, драма, 1958) [DVDRip, Не требуетс ...
  • Печёнка (Арман Манарян, короткометражка, комедия, 1962) [DVDRip, Не требует ...
  • Мы с Вулканом (Валентин Перов, детский, семейный, 1973) [TVRip, Не требуетс ...
  • Бабочка (Нелли Ненова, Гено Цулая, короткометражка, мелодрама, 1977) [TVRip ...
  • Термометр (Рамаз Шарабидзе, короткометражка, 1976) [TVRip, Профессиональный ...
  • Лимонный торт (Амиран Дарсавелидзе, Реваз Габриадзе, короткометражка, комед ...
  • Удача (Баадур Цуладзе, короткометражка, комедия, 1980) [TVRip, Профессионал ...
  • Пари (Рамаз Шарабидзе, короткометражка, комедия, 1974) [TVRip, Профессионал ...
  • Садко (Александр Птушко, фэнтези, приключения, 1952) [DVDRip, Не требуется] ...
  • Оглашению не подлежит (Хасан Бакаев, драма, 1987) [TVRip, Не требуется]
  • Ведьма (Александр Абрамов, драма, экранизация,1958) [SAT Rip, оригинал]
  • Хозяин и слуга (Дмитрий Кесаянц, короткометражка, комедия, 1963) [DVDRip, Н ...
  • Шофер поневоле (Надежда Кошеверова, комедия, 1958) [DVDRip, Не требуется]
  • Гарем Степана Гуслякова (Алишер Хамдамов, драма, 1989) [TVRip, Не требуетс ...
  • Как рождаются тосты (Всеволод Массино, Оскар Герц, Андрей Тутышкин, коротко ...
  • Информация
    Посетители, находящиеся в группе Гости, не могут оставлять комментарии к данной публикации.