вход на сайт

Имя пользователя :
Пароль :

Восстановление пароля Регистрация
Гарем Степана Гуслякова (Алишер Хамдамов, драма, 1989) [TVRip, Не требуется]
Рейтинг:
(голосов: 1)



[img]{THEME}/images/logopost.png[/img]



Гарем Степана Гуслякова

Год выпуска: 1989
Страна: СССР
Производство: Катарсис
Жанр: драма

Режиссёр: Алишер Хамдамов
В ролях: Владимир Литвинов, Ольга Богачева, Елена Демидова, Николай Гусаров, Людмила Баранова, Валерий Величко, Татьяна Лаврентьева, Болот Бейшеналиев, Владимир Толоконников, Наталья Корнеева

Перевод: Не требуется
Субтитры: Отсутствуют

Описание:
Муж безнадежно больной Клавдии влюбляется в соседку Марию, которая в отсутствие жены помогала ему по хозяйству. А спустя полтора года Клавдия возвращается из больницы…


Дополнительно:
MediaInfo ▼Text
Общее
Полное имя :D:. РАЗДАЧАГарем Степана ГусляковаGarem_Stepana_Gusljakova.avi
Формат :AVI
Размер :1.37 GiB
Продолжительность :01:33:37.840
Общий поток :2 095 Kbps
Программа кодирования :VirtualDubModRus 1.5.10.2 (build 2542/release)
Библиотека кодирования :VirtualDubMod build 2542/release

Видео
Идентификатор :0
Формат :MPEG-4 Visual
Профиль формата :Advanced [email protected]
Параметр BVOP формата :2
Параметр Qpel формата :No
Параметр GMC формата :0
Параметр Matrix формата :Default (H.263)
Идентификатор кодека :XVID
Продолжительность :1h 33mn 37s 840ms
Битрейт :1 893 Kbps
Ширина :704 pixels
Высота :528 pixels
Соотношение сторон :1.333
Частота кадров :25.000 fps
Глубина цвета :8 bits
Подвыборка цветности :4:2:0
Цветовое пространство :YUV
Тип развертки :Progressive
Бит/(Пиксели*Кадры) :0.204
Размер потока :1.24 GiB (90%)
Библиотека кодирования :XviD0063

Аудио #1
Идентификатор :1
Формат :MPEG Audio
Идентификатор кодека :55
Продолжительность :01:33:37.704
Вид битрейта :Constant
Битрейт :192 Kbps
Канал(ы) :2 channels
Частота :48.0 KHz
Метод сжатия :Lossy
Размер потока :129 MiB (9%)Тех. данные:
Качество:TVRip
Продолжительность:01:33:30 час

Формат: AVI
Видео кодек: XviD
Аудио кодек: MPA1L3
Видео: 704 x 528 (4:3), 25.000 fps, 1 893 Kbps, 0.204 bit/pixel
Ау
6a7a85a5c632894a02590599f28fa6f78c6bbb5aГарем Степана Гуслякова (Алишер Хамдамов, драма, 1989) [TVRip, Не требуется] Гарем Степана Гуслякова (Алишер Хамдамов, драма, 1989) [TVRip, Не требуется] " />

Аплоадер: Админ, дата: 2-12-2012, 22:43, торрент скачан: 359 раз

Понравилась раздача? Посмотрите эти:
  • Открытая книга (Владимир Фетин, драма, биография, 1973) [DVDRip, Не требуе ...
  • Нейтральные воды (Владимир Беренштейн, драма, 1968) [DVDRip, Не требуется]
  • Дон Сезар де Базан (2 части из 2) (Ян Фрид, мюзикл, комедия, 1989) [DVDRip, ...
  • Дама с собачкой (Иосиф Хейфиц, драма, мелодрама, 1959) [DVDRip, Не требуетс ...
  • Вы чье, старичье? (Иосиф Хейфиц, драма, 1988) [DVDRip, Не требуется]
  • Выстрел (Наум Трахтенберг, драма, 1966) [DVDRip, Не требуется]
  • Призрак (Никита Орлов, боевик, триллер, 1991) [TVRip, Не требуется]
  • Последняя жертва (Петр Тодоровский, драма, мелодрама, 1975) [DVDRip, Не тре ...
  • Лес (Владимир Мотыль, драма, 1980) [DVDRip, Не требуется]
  • Капитанская дочка (Владимир Каплуновский, драма, 1958) [DVDRip, Не требуетс ...
  • Ты и я (Лариса Шепитько, драма, 1971) [DVDRip, Не требуется]
  • Чайка (Юлий Карасик, драма, 1972) [DVDRip, Не требуется]
  • Мы с Вулканом (Валентин Перов, детский, семейный, 1973) [TVRip, Не требуетс ...
  • Степь (2 части из 2) (Сергей Бондарчук, драма, история, 1977) [DVDRip, Не т ...
  • Раннее, раннее утро... (3 части из 3) (Валерий Харченко, семейный, 1983) [T ...
  • Оглашению не подлежит (Хасан Бакаев, драма, 1987) [TVRip, Не требуется]
  • Донская повесть (Владимир Фетин, драма, 1964) [DVDRip, Не требуется]
  • Фонтан (Юрий Мамин, комедия, 1989) [DVDRip, Не требуется]
  • Мексиканец (Владимир Каплуновский, драма, 1955) [DVDRip, Не требуется]
  • Ведьма (Александр Абрамов, короткометражка, драма, 1958) [TVRip, Не требует ...
  • Информация
    Посетители, находящиеся в группе Гости, не могут оставлять комментарии к данной публикации.