вход на сайт

Имя пользователя :
Пароль :

Восстановление пароля Регистрация
Лермонтов (Альберт Гендельштейн, драма, биография, 1943) [DVDRip, Не требуется]
Рейтинг:
(голосов: 1)



[img]{THEME}/images/logopost.png[/img]



Лермонтов

Год выпуска: 1943
Страна: СССР
Производство: Союздетфильм, Студия Сталинобад
Жанр: драма, биография

Режиссёр: Альберт Гендельштейн
В ролях: Алексей Консовский, Нина Шатерникова, А. Раевский, Павел Шпрингфельд, Георгий Менглет, Вера Алтайская, Николай Комиссаров, Семен Свашенко

Перевод: Не требуется
Субтитры: Отсутствуют

Описание:
Действие картины начинается с предсмертных дней Пушкина и заканчивается гибелью Лермонтова. Страдающий, радостно-взволнованный, одухотворенный, мятежный — таким предстает перед зрителями великий русский поэт в гениальных строчках его стихов, в глубоких размышлениях, в смелых и дерзких поступках.


Дополнительно:
MediaInfo ▼Text
Общее
Полное имя :K:2. РАЗДАЧАЛермонтовlermontov.avi
Формат :AVI
Размер :1.37 GiB
Продолжительность :01:16:33.080
Общий поток :2 559 Kbps
Библиотека кодирования :VirtualDub build 32817/release

Видео
Идентификатор :0
Формат :MPEG-4 Visual
Параметр BVOP формата :1
Параметр Qpel формата :No
Параметр GMC формата :0
Параметр Matrix формата :Default (H.263)
Идентификатор кодека :DX50
Продолжительность :1h 16mn 33s 80ms
Битрейт :2 357 Kbps
Ширина :704 pixels
Высота :528 pixels
Соотношение сторон :1.333
Частота кадров :25.000 fps
Глубина цвета :8 bits
Подвыборка цветности :4:2:0
Цветовое пространство :YUV
Тип развертки :Progressive
Бит/(Пиксели*Кадры) :0.254
Размер потока :1.26 GiB (92%)
Библиотека кодирования :DivX503b2816p

Аудио #1
Идентификатор :1
Формат :AC-3
Формат/Информация :Audio Coding 3
Идентификатор кодека :2000
Продолжительность :01:16:33.080
Вид битрейта :Constant
Битрейт :192 Kbps
Канал(ы) :2 channels
Расположение каналов :Front: L R
Частота :48.0 KHz
Битовая глубина :16 bits
Метод сжатия :Lossy
Размер потока :105 MiB (8%)Тех. данные:
Качество:DVDRip
Продолжительность:01:16:30 час

Формат: AVI
Видео код
0d68ef58b28dfbec8444f4ef1876b85dc49e3ae5Лермонтов (Альберт Гендельштейн, драма, биография, 1943) [DVDRip, Не требуется] Лермонтов (Альберт Гендельштейн, драма, биография, 1943) [DVDRip, Не требуется] " />

Аплоадер: Админ, дата: 1-12-2012, 21:38, торрент скачан: 359 раз

Понравилась раздача? Посмотрите эти:
  • Василий и Василиса (Ирина Поплавская, драма, мелодрама, биография, 1981) [D ...
  • Журавушка (Николай Москаленко, драма, мелодрама, 1968) [DVDRip, Не требуетс ...
  • Агония (2 части из 2) (Элем Климов, драма, биография, история, 1981) [DVDRi ...
  • Нейтральные воды (Владимир Беренштейн, драма, 1968) [DVDRip, Не требуется]
  • Ко мне, Мухтар! (Семен Туманов, В. Тиунова, драма, 1964) [DVDRip, Не требуе ...
  • Дама с собачкой (Иосиф Хейфиц, драма, мелодрама, 1959) [DVDRip, Не требуетс ...
  • Старшина (Николай Кошелев, драма, 1979) [DVDRip, Не требуется]
  • Зеркало (Андрей Тарковский, драма, биография, 1974) [DVDRip, Не требуется]
  • Опекун (Эдгар Ходжикян, Альберт С. Мкртчян, комедия, 1970) [DVDRip, Не треб ...
  • Насреддин в Бухаре (Nasreddin v Bukhare) (Яков Протазанов, мелодрама, комед ...
  • Порожний рейс (Владимир Венгеров, драма, 1962) [DVDRip, Не требуется]
  • Чайка (Юлий Карасик, драма, 1972) [DVDRip, Не требуется]
  • Печники (Виктор Храмов, драма, 1982) [DVDRip, Не требуется]
  • Боевой киносборник 7 (Леонид Альцев, Альберт Гендельштейн, Климентий Минц, ...
  • Славный малый (Борис Барнет, военный, 1943) [DVDRip, Не требуется]
  • При исполнении служебных обязанностей (Илья Гурин, фантастика, драма, 1963) ...
  • Юность Петра (Сергей Герасимов, драма, биография, 1980) [DVDRip, Не требует ...
  • Судьба человека (Сергей Бондарчук, драма, военный, биография, 1959) [DVDRip ...
  • Болотные солдаты (Александр Мачерет, драма, военный, 1938) [DVDRip, Не треб ...
  • Земля Санникова (Альберт С. Мкртчян, Леонид Попов, приключения, 1973) [DVDR ...
  • Адмирал Нахимов (Всеволод Пудовкин, драма, военный, биография, история, 194 ...
  • Александр Попов (Виктор Эйсымонт, Герберт Раппапорт, драма, биография, 1949 ...
  • Кутузов (Владимир Петров, драма, 1943) [DVDRip, Не требуется]
  • Суворов (Михаил Доллер, Всеволод Пудовкин, драма, военный, биография, истор ...
  • Иван Грозный (2 части из 2) (Сергей Эйзенштейн, драма, биография, история, ...
  • Информация
    Посетители, находящиеся в группе Гости, не могут оставлять комментарии к данной публикации.