вход на сайт

Имя пользователя :
Пароль :

Восстановление пароля Регистрация
В добрый час! (Виктор Эйсымонт, драма, мелодрама, 1956) [DVDRip, Не требуется]
Рейтинг:
(голосов: 1)



[img]{THEME}/images/logopost.png[/img]



В добрый час!

Год выпуска: 1956
Страна: СССР
Производство: Студия Горького
Жанр: драма, мелодрама

Режиссёр: Виктор Эйсымонт
В ролях: Виктор Хохряков, Леонид Харитонов, Олег Голубицкий, Галина Самохина, Наталья Малявина, Леонид Давыдов-Субоч, Олег Анофриев, Людмила Нарышкина, Сергей Витомсков, Людмила Чернышева

Перевод: Не требуется
Субтитры: Отсутствуют

Описание:
В Москву из далекой сибирской деревни приезжает поступать в институт Алексей. Он останавливается у родственников, в профессорской семье. После провала на приемных экзаменах он уезжает домой вместе с сыном профессора Андреем, еще не до конца решившим, чем ему заниматься.


Дополнительно:
MediaInfo ▼Text
Общее
Полное имя :D:. РАЗДАЧАВ добрый час!V dobriy chas.DVDRip.avi
Формат :AVI
Размер :1.37 GiB
Продолжительность :01:32:56.240
Общий поток :2 105 Kbps
Программа кодирования :VirtualDubModRus 1.5.10.2 (build 2542/release)
Библиотека кодирования :VirtualDubMod build 2542/release

Видео
Идентификатор :0
Формат :MPEG-4 Visual
Параметр BVOP формата :1
Параметр Qpel формата :No
Параметр GMC формата :0
Параметр Matrix формата :Default (H.263)
Идентификатор кодека :DX50
Продолжительность :1h 32mn 56s 240ms
Битрейт :1 871 Kbps
Ширина :688 pixels
Высота :512 pixels
Соотношение сторон :1.344
Частота кадров :25.000 fps
Глубина цвета :8 bits
Подвыборка цветности :4:2:0
Цветовое пространство :YUV
Тип развертки :Progressive
Бит/(Пиксели*Кадры) :0.213
Размер потока :1.21 GiB (89%)
Библиотека кодирования :DivX503b2676p

Аудио #1
Идентификатор :1
Формат :AC-3
Формат/Информация :Audio Coding 3
Идентификатор кодека :2000
Продолжительность :01:32:56.224
Вид битрейта :Constant
Битрейт :224 Kbps
Канал(ы) :2 channels
Расположение каналов :Front: L R
Частота :48.0 KHz
Битовая глубина :16 bits
Метод сжатия :Lossy
Размер потока :149 MiB (11%)Тех
c9ef2fae4e8690dcfb381a68686796b26d3edc71В добрый час! (Виктор Эйсымонт, драма, мелодрама, 1956) [DVDRip, Не требуется] В добрый час! (Виктор Эйсымонт, драма, мелодрама, 1956) [DVDRip, Не требуется] " />

Аплоадер: Админ, дата: 1-12-2012, 19:13, торрент скачан: 359 раз

Понравилась раздача? Посмотрите эти:
  • Дружок (Виктор Эйсымонт, семейный, 1958) [DVDRip, Не требуется]
  • На подмостках сцены (Константин Юдин, драма, комедия, 1956) [DVDRip, Не тре ...
  • Журавушка (Николай Москаленко, драма, мелодрама, 1968) [DVDRip, Не требуетс ...
  • Медовый месяц (Надежда Кошеверова, мелодрама, комедия, 1956) [DVDRip, Не тр ...
  • Дама с собачкой (Иосиф Хейфиц, драма, мелодрама, 1959) [DVDRip, Не требуетс ...
  • Убийство на улице Данте (Михаил Ромм, драма, 1956) [DVDRip, Не требуется]
  • Приключения Толи Клюквина (Виктор Эйсымонт, комедия, семейный, 1964) [DVDRi ...
  • Последняя жертва (Петр Тодоровский, драма, мелодрама, 1975) [DVDRip, Не тре ...
  • Опасный возраст (Александр Прошкин, драма, 1981) [DVDRip, Не требуется]
  • Ты и я (Лариса Шепитько, драма, 1971) [DVDRip, Не требуется]
  • Печники (Виктор Храмов, драма, 1982) [DVDRip, Не требуется]
  • Четвертый перископ (Виктор Эйсымонт, приключения, 1942) [DVDRip, Не требует ...
  • Судьба барабанщика (Виктор Эйсымонт, драма, приключения, 1956) [DVDRip, Не ...
  • Степь (2 части из 2) (Сергей Бондарчук, драма, история, 1977) [DVDRip, Не т ...
  • Самый красивый конь (Степан Пучинян, мелодрама, 1976) [DVDRip, Не требуется ...
  • Уходя - уходи (Виктор Трегубович, комедия, 1978) [DVDRip, Не требуется]
  • Деловые люди (полная реставрация) (Леонид Гайдай, комедия, драма, 1962) [DV ...
  • Драгоценный подарок (Александр Роу, семейный, 1956) [DVDRip, Не требуется]
  • Здравствуйте, я ваша тетя! (Виктор Титов, комедия, 1974) [DVDRip, Не требуе ...
  • Александр Попов (Виктор Эйсымонт, Герберт Раппапорт, драма, биография, 1949 ...
  • Информация
    Посетители, находящиеся в группе Гости, не могут оставлять комментарии к данной публикации.