вход на сайт

Имя пользователя :
Пароль :

Восстановление пароля Регистрация
Александр Попов (Виктор Эйсымонт, Герберт Раппапорт, драма, биография, 1949) [DVDRip, Не требуется]
Рейтинг:
(голосов: 1)



[img]{THEME}/images/logopost.png[/img]



Александр Попов

Год выпуска: 1949
Страна: СССР
Производство: Ленфильм
Жанр: драма, биография

Режиссёр: Виктор Эйсымонт, Герберт Раппапорт
В ролях: Николай Черкасов, Александр Борисов, Константин Скоробогатов, Илья Судаков, Юрий Толубеев, Владимир Честноков, К. Благовещенская, Л. Вивен, Бруно Фрейндлих, Осип Абдулов

Перевод: Не требуется
Субтитры: Отсутствуют

Описание:
Ко Дню первого Президента РК. Фильмы о знаменитых людях, делавших Историю своей страны.

Изобретенный им беспроволочный телеграф впервые был применен в тяжелейших условиях полярного севера, спасении людей, оказавшихся на льдине в открытом океане


Дополнительно:
MediaInfo ▼Text
Общее
Полное имя :D:. РАЗДАЧААлександр ПоповA.Popov.1949.DVDRip.avi
Формат :AVI
Размер :1.38 GiB
Продолжительность :01:26:53.088
Общий поток :2 280 Kbps
Программа кодирования :Lavf51.12.1
Библиотека кодирования :VirtualDub-MPEG2 build 24600/release

Видео
Идентификатор :0
Формат :MPEG-4 Visual
Профиль формата :Advanced [email protected]
Параметр BVOP формата :2
Параметр Qpel формата :No
Параметр GMC формата :0
Параметр Matrix формата :Default (H.263)
Идентификатор кодека :XVID
Продолжительность :1h 26mn 53s 40ms
Битрейт :2 078 Kbps
Ширина :640 pixels
Высота :480 pixels
Соотношение сторон :1.333
Частота кадров :25.000 fps
Глубина цвета :8 bits
Подвыборка цветности :4:2:0
Цветовое пространство :YUV
Тип развертки :Progressive
Бит/(Пиксели*Кадры) :0.271
Размер потока :1.26 GiB (91%)
Библиотека кодирования :XviD0050

Аудио #1
Идентификатор :1
Формат :MPEG Audio
Идентификатор кодека :55
Продолжительность :01:26:53.088
Вид битрейта :Constant
Битрейт :192 Kbps
Канал(ы) :2 channels
Частота :48.0 KHz
Метод сжатия :Lossy
Размер потока :119 MiB (8%)Тех. данные:
Качество:DVDRip
Продолжительность:01:26:58 час

Формат: AVI
Видео кодек: XviD
Аудио кодек: MPA1L3
Видео: 640 x 480 (4
f4385ecb4ba43b4fb0657af873cafba60e2c6a0cАлександр Попов (Виктор Эйсымонт, Герберт Раппапорт, драма, биография, 1949) [DVDRip, Не требуется] Александр Попов (Виктор Эйсымонт, Герберт Раппапорт, драма, биография, 1949) [DVDRip, Не требуется] " />

Аплоадер: Админ, дата: 1-12-2012, 18:47, торрент скачан: 359 раз

Понравилась раздача? Посмотрите эти:
  • Дружок (Виктор Эйсымонт, семейный, 1958) [DVDRip, Не требуется]
  • Бой под Соколом (Александр Разумный, военный, 1942) [DVDRip, Не требуется]
  • Открытая книга (Владимир Фетин, драма, биография, 1973) [DVDRip, Не требуе ...
  • Воздушный извозчик (Герберт Раппапорт, мюзикл, комедия, 1943) [DVDRip, Не т ...
  • Пётр Первый (Владимир Петров, драма, военный, биография, 1937) [DVDRip, Не ...
  • Приключения Толи Клюквина (Виктор Эйсымонт, комедия, семейный, 1964) [DVDRi ...
  • Друг мой, Колька!.. (Александр Митта, Алексей Салтыков, драма, 1961) [DVDRi ...
  • Михайло Ломоносов (Александр Иванов, драма, история, 1955) [DVDRip, Не треб ...
  • Лес (Владимир Мотыль, драма, 1980) [DVDRip, Не требуется]
  • Крейсер «Варяг» (Виктор Эйсымонт, военный, 1946) [DVDRip-AVC, Не требуется] ...
  • Сказы Уральских гор (Ольгерд Воронцов, документальный, биография, 1968) [DV ...
  • Печники (Виктор Храмов, драма, 1982) [DVDRip, Не требуется]
  • Четвертый перископ (Виктор Эйсымонт, приключения, 1942) [DVDRip, Не требует ...
  • Судьба барабанщика (Виктор Эйсымонт, драма, приключения, 1956) [DVDRip, Не ...
  • Адмирал Нахимов (Всеволод Пудовкин, драма, военный, биография, история, 194 ...
  • Александр Пархоменко (Леонид Луков, военный, биография, история, 1942) [DVD ...
  • Кутузов (Владимир Петров, драма, 1943) [DVDRip, Не требуется]
  • Суворов (Михаил Доллер, Всеволод Пудовкин, драма, военный, биография, истор ...
  • Иван Грозный (2 части из 2) (Сергей Эйзенштейн, драма, биография, история, ...
  • В добрый час! (Виктор Эйсымонт, драма, мелодрама, 1956) [DVDRip, Не требует ...
  • Информация
    Посетители, находящиеся в группе Гости, не могут оставлять комментарии к данной публикации.