вход на сайт

Имя пользователя :
Пароль :

Восстановление пароля Регистрация
Как дома, как дела? (Самвел Гаспаров, драма, семейный, 1987) [TVRip, Не тербуется]
Рейтинг:
(голосов: 1)



[img]{THEME}/images/logopost.png[/img]



Как дома, как дела?

Год выпуска: 1987
Страна: СССР
Производство: Студия Горького
Жанр: драма, семейный

Режиссёр: Самвел Гаспаров
В ролях: Микаэл Джанибекян, Рамаз Чхиквадзе, Ия Нинидзе, Абессалом Лория, Мзия Квирикашвили, Лия Элиава, Занда Иоселиани, Павел Казарян, Лия Гудадзе, Сосо Джачвлиани

Перевод: Не тербуется
Субтитры: Отсутствуют

Описание:
С началом Великой Отечественной Войны, шумный, веселый тбилисский двор опустел. Мужчины ушли на фронт, и на плечи женщин легло много забот. У Мики — одного из городских ребят — появился на свет младший брат. Позже пришло в их семью и горе — погиб на войне отец. Но жизнь продолжалась…

Мика с друзьями решают сами разносить письма и помогать родственникам погибших. Свою работу они выполняют очень ответственно. Только одно письмо с фронта Мика не может отдать в руки адресату — девушке, которая ему нравится.


Дополнительно:
MediaInfo ▼Text
Общее
Полное имя :K:2. РАЗДАЧАКак дома, как делаKak doma, kak dela.avi
Формат :AVI
Размер :781 MiB
Продолжительность :01:22:20.520
Общий поток :1 325 Kbps
Программа кодирования :VirtualDubMod 1.5.10.2 (build 2542/release)
Библиотека кодирования :VirtualDubMod build 2542/release

Видео
Идентификатор :0
Формат :MPEG-4 Visual
Параметр BVOP формата :1
Параметр Qpel формата :No
Параметр GMC формата :0
Параметр Matrix формата :Default (H.263)
Идентификатор кодека :DX50
Продолжительность :1h 22mn 20s 520ms
Битрейт :1 220 Kbps
Ширина :512 pixels
Высота :384 pixels
Соотношение сторон :1.333
Частота кадров :25.000 fps
Глубина цвета :8 bits
Подвыборка цветности :4:2:0
Цветовое пространство :YUV
Тип развертки :Progressive
Бит/(Пиксели*Кадры) :0.248
Размер потока :718 MiB (92%)
Библиотека кодирования :DivX503b740p

Аудио #1
Идентификатор :1
Формат :MPEG Audio
Идентификатор кодека :55
Продолжительность :01:22:20.472
Вид битрейта :Constant
Битрейт :96.0 Kbps
Канал(ы) :1 channel
Частота :44.1 KHz
Метод сжатия :Lossy
Размер потока :56.5 MiB (7%)


&n
13c24b1f9e19cdc67560f3e359a42e1bd7bee14fКак дома, как дела? (Самвел Гаспаров, драма, семейный, 1987) [TVRip, Не тербуется] Как дома, как дела? (Самвел Гаспаров, драма, семейный, 1987) [TVRip, Не тербуется] " />

Аплоадер: Админ, дата: 30-11-2012, 20:34, торрент скачан: 359 раз

Понравилась раздача? Посмотрите эти:
  • Хатчипух / Hatschipuh (Ульрих Кениг, мультфильм, семейный, 1987) [DVDRip, П ...
  • Айрик (Генрих Малян, драма, семейный, 1972) [DVDRip, Профессиональный (пол ...
  • Завтра была война (Юрий Кара, драма, семейный, военный, 1987) [DVDRip, Не т ...
  • Гикор (Сергей Исраелян, драма, семейный, 1982) [DVDRip, Профессиональный (п ...
  • Шестой (Самвел Гаспаров, боевик, 1981) [DVDRip, Не требуется]
  • Прощай, шпана замоскворецкая... (Александр Панкратов, драма, мелодрама, 198 ...
  • Воскресный папа (Наум Бирман, драма, семейный, 1985) [DVDRip, Не требуется] ...
  • Двенадцать месяцев (2 части из 2) (Анатолий Граник, фэнтези, семейный, 1972 ...
  • Друг мой, Колька!.. (Александр Митта, Алексей Салтыков, драма, 1961) [DVDRi ...
  • Хлеб, золото, наган (Самвел Гаспаров, боевик, 1980 год) [DVDrip, оригинал] ...
  • Мы с Вулканом (Валентин Перов, детский, семейный, 1973) [TVRip, Не требуетс ...
  • Холодное лето пятьдесят третьего (Александр Прошкин, боевик, драма, кримина ...
  • Раннее, раннее утро... (3 части из 3) (Валерий Харченко, семейный, 1983) [T ...
  • Оглашению не подлежит (Хасан Бакаев, драма, 1987) [TVRip, Не требуется]
  • После дождичка, в четверг... (Михаил Юзовский, семейный, 1987) [DVDRip, Не ...
  • Приключения маленького Мука (Елизавета Кимягарова, мюзикл, семейный, 1983) ...
  • Гарем Степана Гуслякова (Алишер Хамдамов, драма, 1989) [TVRip, Не требуетс ...
  • Ведьма (Александр Абрамов, короткометражка, драма, 1958) [TVRip, Не требует ...
  • Моонзунд (2 части из 2) (Александр Муратов, драма, мелодрама, военный, исто ...
  • Медведи и я / The Bears and I (Бернард МакЭвети, драма, семейный, 1974) [DV ...
  • Информация
    Посетители, находящиеся в группе Гости, не могут оставлять комментарии к данной публикации.