вход на сайт

Имя пользователя :
Пароль :

Восстановление пароля Регистрация
Каин XVIII (Надежда Кошеверова, Михаил Шапиро, фэнтези, мелодрама, приключения, 1963) [DVDRip, Не требуется]
Рейтинг:
(голосов: 1)



[img]{THEME}/images/logopost.png[/img]



Каин XVIII

Год выпуска: 1963
Страна: СССР
Производство: Ленфильм
Жанр: фэнтези, мелодрама, приключения

Режиссёр: Надежда Кошеверова, Михаил Шапиро
В ролях: Эраст Гарин, Лидия Сухаревская, Светлана Лощинина, Юрий Любимов, Бруно Фрейндлих, Михаил Жаров, Александр Демьяненко, Станислав Хитров, Александр Бениаминов, Яков Гудкин

Перевод: Не требуется
Субтитры: Отсутствуют

Описание:
Бродячий музыкант влюбляется в принцессу, которую хотят отдать за старика-короля из соседнего королевства, самодура и подлеца. Но любовь преодолевает преграды и соединяет сердца влюбленных.


Дополнительно:
MediaInfo ▼Text
Общее
Полное имя :L:3.РаздачаКаин XVIIIkain_XVIII.avi
Формат :AVI
Размер :1.29 GiB
Продолжительность :01:29:09.000
Общий поток :2 073 Kbps
Программа кодирования :VirtualDubMod 1.5.10.2 (build 2540/release)
Библиотека кодирования :VirtualDub build 33769/release

Видео
Идентификатор :0
Формат :MPEG-4 Visual
Профиль формата :Advanced [email protected]
Параметр BVOP формата :3
Параметр Qpel формата :No
Параметр GMC формата :0
Параметр Matrix формата :Default (H.263)
Идентификатор кодека :XVID
Продолжительность :1h 29mn 9s 0ms
Битрейт :1 999 Kbps
Ширина :720 pixels
Высота :544 pixels
Соотношение сторон :1.324
Частота кадров :25.000 fps
Глубина цвета :8 bits
Подвыборка цветности :4:2:0
Цветовое пространство :YUV
Тип развертки :Progressive
Бит/(Пиксели*Кадры) :0.204
Размер потока :1.25 GiB (96%)
Библиотека кодирования :XviD0050

Аудио #1
Идентификатор :1
Формат :MPEG Audio
Идентификатор кодека :55
Продолжительность :01:29:08.520
Вид битрейта :Constant
Битрейт :64.0 Kbps
Канал(ы) :1 channel
Частота :48.0 KHz
Метод сжатия :Lossy
Размер потока :40.8 MiB (3%)Тех. данные:
Качество:DVDRip
Продолжительность:01:29:00 час

Формат: AVI
Видео кодек: XviD
Аудио кодек: MPA1L3
Видео: 720 x 544 (4:3), 25.000 fps, 1 999 Kbps, 0.204 bit/pixe
4a358e91a210cf290c19bf9fb4b168248c519c4cКаин XVIII (Надежда Кошеверова, Михаил Шапиро, фэнтези, мелодрама, приключения, 1963) [DVDRip, Не требуется] Каин XVIII (Надежда Кошеверова, Михаил Шапиро, фэнтези, мелодрама, приключения, 1963) [DVDRip, Не требуется] " />

Аплоадер: Админ, дата: 30-11-2012, 20:30, торрент скачан: 359 раз

Понравилась раздача? Посмотрите эти:
  • Матрос Чижик (Владимир Браун, мелодрама, 1955) [DVDRip, Не требуется]
  • Золушка (Надежда Кошеверова, Михаил Шапиро, мюзикл, фэнтези, мелодрама, ком ...
  • Если ты прав... (Юрий Егоров, мелодрама, 1963) [DVDRip, Не требуется]
  • Медовый месяц (Надежда Кошеверова, мелодрама, комедия, 1956) [DVDRip, Не тр ...
  • Летят журавли (Михаил Калатозов, драма, мелодрама, военный, 1957) [DVDRip, ...
  • Девушка без адреса (Эльдар Рязанов, мелодрама, комедия, 1957) [DVDRip, Не т ...
  • Шанс (Александр Майоров, фантастика, фэнтези, мелодрама, комедия, приключен ...
  • И вот пришел Бумбо... (Надежда Кошеверова, В. Апананский, Н. Окунцова, семе ...
  • Иван да Марья (Борис Рыцарев, фэнтези, мелодрама, комедия, семейный, музыка ...
  • Ослиная шкура (Надежда Кошеверова, фэнтези, мелодрама, комедия, семейный, 1 ...
  • Золушка (Надежда Кошеверова, Михаил Шапиро, мюзикл, фэнтези, мелодрама, ком ...
  • Царевич Проша (Надежда Кошеверова, фэнтези, семейный, 1947) [DVDRip, Не тре ...
  • Как Иванушка-дурачок за чудом ходил (Надежда Кошеверова, фэнтези, семейный, ...
  • Тень (Реставрация) (Надежда Кошеверова, фэнтези, драма, мелодрама, комедия, ...
  • Морозко // Королевство кривых зеркал // Финист – Ясный сокол (Александр Роу ...
  • Сегодня – новый аттракцион (Надежда Кошеверова, Аполлинарий Дудко, комедия, ...
  • Старая, старая сказка (Надежда Кошеверова, фэнтези, семейный, 1968) [DVDRip ...
  • Соловей (Надежда Кошеверова, мюзикл, семейный, 1979) [DVDRip, Не требуется] ...
  • Пропало лето (Ролан Быков, Никита Орлов, комедия, семейный, 1963) [DVDRip, ...
  • Садко (Александр Птушко, фэнтези, приключения, 1952) [DVDRip, Не требуется] ...
  • Полустанок (Борис Барнет, мелодрама, комедия, 1963) [DVDRip, Не требуется]
  • Каин XVIII (Надежда Кошеверова, Михаил Шапиро, сказка, комедия,1963) [DVDRi ...
  • Золушка (Надежда Кошеверова, Михаил Шапиро, cказка, комедия, мелодрама, мю ...
  • Шофер поневоле (Надежда Кошеверова, комедия, 1958) [DVDRip, Не требуется]
  • Вера, надежда, любовь (Владимир Грамматиков, приключения, 1984) [DVDRip, Не ...
  • Информация
    Посетители, находящиеся в группе Гости, не могут оставлять комментарии к данной публикации.