вход на сайт

Имя пользователя :
Пароль :

Восстановление пароля Регистрация
Земля Санникова (Альберт С. Мкртчян, Леонид Попов, приключения, 1973) [DVDRip, Не требуется]
Рейтинг:
(голосов: 1)



[img]{THEME}/images/logopost.png[/img]



Земля Санникова

Год выпуска: 1973
Страна: СССР
Производство: Мосфильм
Жанр: приключения

Режиссёр: Альберт С. Мкртчян, Леонид Попов
В ролях: Олег Даль, Юрий Назаров, Георгий Вицин, Махмуд Эсамбаев, Николай Гриценко, Геворк Чепчян, Петр Абашеев, Турсун Куралев, Екатерина Самбуева

Перевод: Не требуется
Субтитры: Отсутствуют

Описание:
Более ста лет загадка земли, затерянной среди арктических льдов, волновала путешественников, но никто не мог достичь ее. Герой фильма, политический ссыльный Ильин, отправляется в экспедицию, которую финансирует богатый золотопромышленник.

Отважные путешественники обнаруживают среди ледяного безмолвия цветущий оазис. Но выясняется, что во время землетрясения он должен исчезнуть. Ильин с товарищами стремится снова достичь материка в попытке предотвратить катастрофу…


Дополнительно:
MediaInfo ▼Text
Общее
Полное имя :L:3.РаздачаЗемля Санниковаemlja_Sannikova.avi
Формат :AVI
Размер :1.85 GiB
Продолжительность :01:29:38.520
Общий поток :2 952 Kbps

Видео
Идентификатор :0
Формат :MPEG-4 Visual
Параметр BVOP формата :Yes
Параметр Qpel формата :No
Параметр GMC формата :0
Параметр Matrix формата :Default (H.263)
Идентификатор кодека :DX50
Продолжительность :1h 29mn 38s 520ms
Битрейт :2 498 Kbps
Ширина :720 pixels
Высота :320 pixels
Соотношение сторон :2.250
Частота кадров :25.000 fps
Глубина цвета :8 bits
Подвыборка цветности :4:2:0
Цветовое пространство :YUV
Тип развертки :Progressive
Бит/(Пиксели*Кадры) :0.434
Размер потока :1.56 GiB (85%)
Библиотека кодирования :DivX503b2816p

Аудио #1
Идентификатор :1
Формат :AC-3
Формат/Информация :Audio Coding 3
Идентификатор кодека :2000
Продолжительность :01:29:38.496
Вид битрейта :Constant
Битрейт :448 Kbps
Канал(ы) :6 channels
Расположение каналов :Front: L C R, Side: L R, LFE
Частота :48.0 KHz
Битовая глубина :16 bits
Метод сжатия :Lossy
Размер потока :287 MiB (15%)



&
4cb516085aec382b602aab8204895962036e4973Земля Санникова (Альберт С. Мкртчян, Леонид Попов, приключения, 1973) [DVDRip, Не требуется] Земля Санникова (Альберт С. Мкртчян, Леонид Попов, приключения, 1973) [DVDRip, Не требуется] " />

Аплоадер: Админ, дата: 30-11-2012, 20:19, торрент скачан: 359 раз

Понравилась раздача? Посмотрите эти:
  • Земля Санникова (Альберт С. Мкртчян, Леонид Попов, приключения, 1973) [DVDR ...
  • Старая крепость (7 частей из 7) (Михаил Беликов, Александр Муратов, приключ ...
  • Совсем пропащий (Георгий Данелия, приключения, 1973) [DVDRip, Не требуется] ...
  • Плохой хороший человек (Иосиф Хейфиц, драма, история, 1973) [DVDRip, Не тре ...
  • Пакет (Владимир Назаров, комедия, приключения, семейный, 1965) [DVDRip, Не ...
  • Захар Беркут (Леонид Осыка, драма, история, 1972) [DVDRip, Не требуется]
  • Опекун (Эдгар Ходжикян, Альберт С. Мкртчян, комедия, 1970) [DVDRip, Не треб ...
  • Опасно для жизни! (Леонид Гайдай, комедия, 1985) [DVDRip, Не требуется]
  • Неисправимый лгун (Виллен Азаров, комедия, 1973) [DVDRip, Не требуется]
  • Земля Санникова [1973, Приключения, DVDRip]
  • Пес Барбос и необычный кросс / Самогонщики / «Сто грамм» для храбрости (Лео ...
  • Мульт-Салют. 23 ч. из 30: Приключения Васи Куролесова/Приключения пингвинен ...
  • Совершенно серьезно (Леонид Гайдай, Эльдар Рязанов, Владимир Семаков, коме ...
  • Спортлото-82 (Леонид Гайдай, комедия, приключения, 1982) [DVDRip, Не требуе ...
  • Суета сует (Алла Сурикова, комедия, 1979) [DVDRip, Не требуется]
  • Проданный смех (2 части из 2) (Леонид Нечаев, мюзикл, фэнтези, приключения, ...
  • Земля Санникова (Альберт С.Мкртчян, Леонид Попов, Приключения, 1973) [DVDRi ...
  • Владимир Обручев. Земля Санникова (фантастика) [MP3, 128 Кбит/с / CBR]
  • Деловые люди (полная реставрация) (Леонид Гайдай, комедия, драма, 1962) [DV ...
  • 01-99 (Амаси Мартиросян, короткометражка, комедия, 1959) [DVDRip, Не требуе ...
  • Хозяин и слуга (Дмитрий Кесаянц, короткометражка, комедия, 1963) [DVDRip, Н ...
  • Живите в радости (Леонид Миллионщиков, комедия, 1978) [DVDRip, Не требуется ...
  • Голубая стрела (Леонид Эстрин, боевик, 1958) [DVDRip, Не требуется]
  • Лермонтов (Альберт Гендельштейн, драма, биография, 1943) [DVDRip, Не требу ...
  • За облаками – небо (Юрий Егоров, драма, 1973) [DVDRip, Не требуется]
  • Информация
    Посетители, находящиеся в группе Гости, не могут оставлять комментарии к данной публикации.