вход на сайт

Имя пользователя :
Пароль :

Восстановление пароля Регистрация
Вера, надежда, любовь (Владимир Грамматиков, приключения, 1984) [DVDRip, Не требуется]
Рейтинг:
(голосов: 1)



[img]{THEME}/images/logopost.png[/img]



Вера, надежда, любовь

Год выпуска: 1984
Страна: СССР
Производство: Студия Горького
Жанр: приключения

Режиссёр: Владимир Грамматиков
В ролях: Владимир Стеклов, Сергей Бобровский, Марина Левтова, Александр Филиппенко, Леонид Белозорович, Александр Яковлев, Наталья Хорохорина, Андрей Калашников, Юрий Заборовский, Алексей Весёлкин

Перевод: Не требуется
Субтитры: Отсутствуют

Описание:
События происходят в годы гражданской войны. Красный командир (он же — и сельский учитель) отправляет юного поэта Ваню в московскую редакцию журнала «Революция и поэзия». Сопровождает Ваню в долгом, полном событий пути, бывалый солдат Сорокин…


Дополнительно:
MediaInfo ▼Text
Общее
Полное имя :K:2. РАЗДАЧАВера, надежда, любовьVera Nadezhda Lubov.DVDRip.avi
Формат :AVI
Размер :1.37 GiB
Продолжительность :01:28:20.000
Общий поток :2 213 Kbps
Программа кодирования :VirtualDubModRus 1.5.10.2 (build 2542/release)
Библиотека кодирования :VirtualDubMod build 2542/release

Видео
Идентификатор :0
Формат :MPEG-4 Visual
Параметр BVOP формата :1
Параметр Qpel формата :No
Параметр GMC формата :0
Параметр Matrix формата :Default (H.263)
Идентификатор кодека :DX50
Продолжительность :1h 28mn 20s 0ms
Битрейт :1 980 Kbps
Ширина :704 pixels
Высота :528 pixels
Соотношение сторон :1.333
Частота кадров :25.000 fps
Глубина цвета :8 bits
Подвыборка цветности :4:2:0
Цветовое пространство :YUV
Тип развертки :Progressive
Бит/(Пиксели*Кадры) :0.213
Размер потока :1.22 GiB (89%)
Библиотека кодирования :DivX503b2676p

Аудио #1
Идентификатор :1
Формат :AC-3
Формат/Информация :Audio Coding 3
Идентификатор кодека :2000
Продолжительность :01:28:19.968
Вид битрейта :Constant
Битрейт :224 Kbps
Канал(ы) :2 channels
Расположение каналов :Front: L R
Частота :48.0 KHz
Битовая глубина :16 bits
Метод сжатия :Lossy
Размер потока :142 MiB (10%)Т
89735342afe6921419d24fa6ddd4a79920176b88Вера, надежда, любовь (Владимир Грамматиков, приключения, 1984) [DVDRip, Не требуется] Вера, надежда, любовь (Владимир Грамматиков, приключения, 1984) [DVDRip, Не требуется] " />

Аплоадер: Админ, дата: 29-11-2012, 21:58, торрент скачан: 359 раз

Понравилась раздача? Посмотрите эти:
  • Нейтральные воды (Владимир Беренштейн, драма, 1968) [DVDRip, Не требуется]
  • Совсем пропащий (Георгий Данелия, приключения, 1973) [DVDRip, Не требуется] ...
  • Пакет (Владимир Назаров, комедия, приключения, семейный, 1965) [DVDRip, Не ...
  • Всё наоборот (Виталий Фетисов, Владимир Грамматиков, мелодрама, комедия, 19 ...
  • И вот пришел Бумбо... (Надежда Кошеверова, В. Апананский, Н. Окунцова, семе ...
  • Ослиная шкура (Надежда Кошеверова, фэнтези, мелодрама, комедия, семейный, 1 ...
  • На графских развалинах (Владимир Скуйбин, приключения, семейный, 1957) [DVD ...
  • Маленькая принцесса (Владимир Грамматиков, семейный, 1997) [DVDRip, Не треб ...
  • Энергичные люди (2 части из 2) (Владимир Захаров, комедия, 1988) [DVDRip, Н ...
  • Как Иванушка-дурачок за чудом ходил (Надежда Кошеверова, фэнтези, семейный, ...
  • Сотрудник ЧК (Борис Волчек, боевик, история, 1963) [DVDRip, Не требуется]
  • Шла собака по роялю (Владимир Грамматиков, мелодрама, 1978) [DVDRip, Не тре ...
  • В лесах под Ковелем (3 части из 3) (Юрий Тупицкий, военный, история, 1984) ...
  • Донская повесть (Владимир Фетин, драма, 1964) [DVDRip, Не требуется]
  • Драгоценный подарок (Александр Роу, семейный, 1956) [DVDRip, Не требуется]
  • Шофер поневоле (Надежда Кошеверова, комедия, 1958) [DVDRip, Не требуется]
  • Голубая стрела (Леонид Эстрин, боевик, 1958) [DVDRip, Не требуется]
  • Р.В.С. (Алексей Мороз, военный, 1977) [DVDRip, (2х)Оригинал (русский)]
  • Каин XVIII (Надежда Кошеверова, Михаил Шапиро, фэнтези, мелодрама, приключе ...
  • Мексиканец (Владимир Каплуновский, драма, 1955) [DVDRip, Не требуется]
  • Информация
    Посетители, находящиеся в группе Гости, не могут оставлять комментарии к данной публикации.