вход на сайт

Имя пользователя :
Пароль :

Восстановление пароля Регистрация
Дом на дюнах (Дмитрий Салынский, приключения, 1984) [DVDRip, Не требуется]
Рейтинг:
(голосов: 1)



[img]{THEME}/images/logopost.png[/img]



Дом на дюнах

Год выпуска: 1984
Страна: СССР
Производство: Гостелерадио, Свердловская киностудия
Жанр: приключения

Режиссёр: Дмитрий Салынский
В ролях: Николай Кочегаров, Эдуард Марцевич, Анжелика Неволина, Игорь Ясулович, Михаил Янушкевич, Александр Рязанцев, Татьяна Кузнецова, Аркадий Шалолашвили

Перевод: Не требуется
Субтитры: Отсутствуют

Описание:
Уединенный дом на дюнах, стоящий на краю болотистой пустоши, привлекает внимание каких-то странных людей, похожих на разбойников. Обитатели дома и гости живут как в осаде. Какая же тайна связана с хозяином дома?


Дополнительно:
MediaInfo ▼Text
Общее
Полное имя :K:2. РАЗДАЧАДом на дюнахdom_na_dunah.avi
Формат :AVI
Размер :1.09 GiB
Продолжительность :01:03:13.200
Общий поток :2 478 Kbps
Программа кодирования :VirtualDubMod 1.5.4.1 (build 2178/release)
Библиотека кодирования :VirtualDubMod build 2178/release

Видео
Идентификатор :0
Формат :MPEG-4 Visual
Профиль формата :Advanced [email protected]
Параметр BVOP формата :1
Параметр Qpel формата :No
Параметр GMC формата :0
Параметр Matrix формата :Custom
Идентификатор кодека :XVID
Продолжительность :1h 3mn 13s 200ms
Битрейт :2 087 Kbps
Ширина :688 pixels
Высота :512 pixels
Соотношение сторон :1.344
Частота кадров :25.000 fps
Глубина цвета :8 bits
Подвыборка цветности :4:2:0
Цветовое пространство :YUV
Тип развертки :Progressive
Бит/(Пиксели*Кадры) :0.237
Размер потока :944 MiB (84%)
Библиотека кодирования :XviD0050

Аудио #1
Идентификатор :1
Формат :AC-3
Формат/Информация :Audio Coding 3
Идентификатор кодека :2000
Продолжительность :01:03:13.184
Вид битрейта :Constant
Битрейт :384 Kbps
Канал(ы) :6 channels
Расположение каналов :Front: L C R, Side: L R, LFE
Частота :48.0 KHz
Битовая глубина :16 bits
Метод сжатия :Lossy
Размер потока :174 MiB (15%)
Язык
a0a6f69243c26fb33e6b2f947b44bf3ecb4fde1bДом на дюнах (Дмитрий Салынский, приключения, 1984) [DVDRip, Не требуется] Дом на дюнах (Дмитрий Салынский, приключения, 1984) [DVDRip, Не требуется] " />

Аплоадер: Админ, дата: 29-11-2012, 21:21, торрент скачан: 359 раз

Понравилась раздача? Посмотрите эти:
  • Маэстро вор (Владимир Шамшурин, боевик, детектив, приключения, 1994) [DVDRi ...
  • Каштанка (Роман Балаян, приключения, 1975) [DVDRip, Не требуется]
  • Два гусара (Вячеслав Криштофович, мелодрама, 1984) [DVDRip, Не требуется]
  • Шанс (Александр Майоров, фантастика, фэнтези, мелодрама, комедия, приключен ...
  • Старшина (Николай Кошелев, драма, 1979) [DVDRip, Не требуется]
  • Путевка в Жизнь (Николай Экк, драма, 1931) [DVDRip, Не требуется]
  • И вот пришел Бумбо... (Надежда Кошеверова, В. Апананский, Н. Окунцова, семе ...
  • Ой, вы, гуси... (Лидия Боброва, Драма, 1991) [DVDRip, Не требуется]
  • Левша (Сергей Овчаров, драма, комедия, 1986) [DVDRip, Не требуется]
  • Князь Игорь (Роман Тихомиров, мюзикл, приключения, 1969) [DVDRip, Не требуе ...
  • Черная чайка (Григорий Колтунов, приключения, 1962) [DVDRip, Не требуется]
  • Небывальщина (Сергей Овчаров, комедия, 1983) [DVDRip, Не требуется]
  • Чудак из пятого «Б» (Илья Фрэз, комедия, семейный, 1972) [DVDRip, Не требуе ...
  • Танкер «Дербент» (Александр Файнциммер, приключения, 1940) [DVDRip, Не треб ...
  • Славный малый (Борис Барнет, военный, 1943) [DVDRip, Не требуется]
  • Приключения маленького папы (Дмитрий Крупко, детский, комедия, 1979) [DVDRi ...
  • Хозяин и слуга (Дмитрий Кесаянц, короткометражка, комедия, 1963) [DVDRip, Н ...
  • Золотая речка (Вениамин Дорман, приключения, 1977) [DVDRip, Не требуется]
  • Вера, надежда, любовь (Владимир Грамматиков, приключения, 1984) [DVDRip, Не ...
  • Каникулы Петрова и Васечкина, обыкновенные и невероятные (2 части из 2) (Вл ...
  • Информация
    Посетители, находящиеся в группе Гости, не могут оставлять комментарии к данной публикации.