вход на сайт

Имя пользователя :
Пароль :

Восстановление пароля Регистрация
Р.В.С. (Алексей Мороз, военный, 1977) [DVDRip, (2х)Оригинал (русский)]
Рейтинг:
(голосов: 1)



[img]{THEME}/images/logopost.png[/img]



Р.В.С.

Год выпуска: 1977
Страна: СССР
Производство: Студия Довженко
Жанр: военный

Режиссёр: Алексей Мороз
В ролях: Вадим Шумейко, Владимир Чубарев, Анатолий Барчук, Алексей Труханенко, Мария Кочур, Николай Мерзликин, Владимир Алексеенко, Вячеслав Сланко, Владимир Нечипоренко, Николай Олейник

Перевод:Оригинал (русский, на 2 дорожках с разными тех. данными)
Субтитры: Отсутствуют

Описание:
О периоде Гражданской войны на Украине и патриотизме подростков, которые принимали активное участие в борьбе за новую жизнь.


Дополнительно:
MediaInfo ▼Text
Общее
Полное имя :L:3.РаздачаР.В.СR.V.S.1977.XviD.DVDRip.avi
Формат :AVI
Размер :1 022 MiB
Продолжительность :01:08:03.240
Общий поток :2 100 Kbps
Программа кодирования :VirtualDubModRus 1.5.10.2 (build 2542/release)
Библиотека кодирования :VirtualDubMod build 2542/release

Видео
Идентификатор :0
Формат :MPEG-4 Visual
Профиль формата :Advanced [email protected]
Параметр BVOP формата :1
Параметр Qpel формата :No
Параметр GMC формата :0
Параметр Matrix формата :Custom
Идентификатор кодека :XVID
Продолжительность :1h 8mn 3s 240ms
Битрейт :1 445 Kbps
Ширина :688 pixels
Высота :352 pixels
Соотношение сторон :1.955
Частота кадров :25.000 fps
Глубина цвета :8 bits
Подвыборка цветности :4:2:0
Цветовое пространство :YUV
Тип развертки :Progressive
Бит/(Пиксели*Кадры) :0.239
Размер потока :704 MiB (69%)
Библиотека кодирования :XviD0050

Аудио #1
Идентификатор :1
Формат :AC-3
Формат/Информация :Audio Coding 3
Идентификатор кодека :2000
Продолжительность :01:08:03.240
Вид битрейта :Constant
Битрейт :448 Kbps
Канал(ы) :6 channels
Расположение каналов :Front: L C R, Side: L R, LFE
Частота :48.0 KHz
Битовая глубина :16 bits
Метод сжатия :Lossy
Размер потока :218 MiB (21%)

Аудио #2
Идентификатор
f9f3713851e14b94aefbbd9e697291800fc747deР.В.С. (Алексей Мороз, военный, 1977) [DVDRip, (2х)Оригинал (русский)] Р.В.С. (Алексей Мороз, военный, 1977) [DVDRip, (2х)Оригинал (русский)] " />

Аплоадер: Админ, дата: 28-11-2012, 22:15, торрент скачан: 359 раз

Понравилась раздача? Посмотрите эти:
  • Бой под Соколом (Александр Разумный, военный, 1942) [DVDRip, Не требуется]
  • "Мерседес" уходит от погони (Юрий Ляшенко, военный, 1980) [DVDRip, Не требу ...
  • Нейтральные воды (Владимир Беренштейн, драма, 1968) [DVDRip, Не требуется]
  • Дама с собачкой (Иосиф Хейфиц, драма, мелодрама, 1959) [DVDRip, Не требуетс ...
  • Шел четвертый год войны... (Георгий Николаенко, военный, 1983) [DVDRip, Не ...
  • Путь в "Сатурн" (Виллен Азаров, военный, 1967) [DVDRip, Не требуется]
  • Конец "Сатурна" (Виллен Азаров, Мосфильм, 1967) [DVDRip, Не требуется]
  • Бой после победы (2 части из 2) (Виллен Азаров, триллер, военный, 1972) [DV ...
  • Проверка на дорогах (Алексей Герман, драма, военный, 1971) [DVDRip, Не треб ...
  • Пакет (Владимир Назаров, комедия, приключения, семейный, 1965) [DVDRip, Не ...
  • Оптимистическая трагедия (Самсон Самсонов, драма, военный, история, 1963) [ ...
  • Комиссар (Александр Аскольдов, драма, военный, 1967) [DVDRip, Не требуется] ...
  • Солдат и слон (Дмитрий Кесаянц, комедия, военный, 1977) [DVDRip, Не требует ...
  • Как Иванушка-дурачок за чудом ходил (Надежда Кошеверова, фэнтези, семейный, ...
  • Степь (2 части из 2) (Сергей Бондарчук, драма, история, 1977) [DVDRip, Не т ...
  • Собака на сене (Реставрирован) (Ян Фрид, мюзикл, комедия, 1977) [DVDRip, Не ...
  • Приехали на конкурс повара (Нерсес Оганесян, комедия, 1977) [DVDRip, Не тре ...
  • Солдатки (Валентин Козачков, драма, 1977) [DVDRip, Не требуется]
  • Подпольный обком действует (4 части из 4) (Анатолий Буковский, военный, 197 ...
  • Болотные солдаты (Александр Мачерет, драма, военный, 1938) [DVDRip, Не треб ...
  • Донская повесть (Владимир Фетин, драма, 1964) [DVDRip, Не требуется]
  • Голубая стрела (Леонид Эстрин, боевик, 1958) [DVDRip, Не требуется]
  • Золотая речка (Вениамин Дорман, приключения, 1977) [DVDRip, Не требуется]
  • Вера, надежда, любовь (Владимир Грамматиков, приключения, 1984) [DVDRip, Не ...
  • Кутузов (Владимир Петров, драма, 1943) [DVDRip, Не требуется]
  • Информация
    Посетители, находящиеся в группе Гости, не могут оставлять комментарии к данной публикации.