вход на сайт

Имя пользователя :
Пароль :

Восстановление пароля Регистрация
Золотая речка (Вениамин Дорман, приключения, 1977) [DVDRip, Не требуется]
Рейтинг:
(голосов: 1)



[img]{THEME}/images/logopost.png[/img]



Золотая речка

Год выпуска: 1977
Страна: СССР
Производство: Студия Горького
Жанр: приключения

Режиссёр: Вениамин Дорман
В ролях: Александр Абдулов, Николай Горлов, Александр Кайдановский, Юрий Каюров, Андрей Харыбин, Георгий Мартиросьян, Ольга Матешко, Николай Олялин, Сергей Сазонтьев, Виктор Сергачев

Перевод: Не требуется
Субтитры: Отсутствуют

Описание:
Продолжение фильма «Пропавшая экспедиция». На этот раз события разворачиваются в 1923 году. Герои фильма вновь попадают в те места, где было найдено богатое месторождение золота. Однако добраться до него оказывается не проще, чем несколько лет назад…


Дополнительно:
MediaInfo ▼Text
Общее
Полное имя :L:3.РаздачаПропавшая экспедицияolotaja rechka.avi
Формат :AVI
Размер :1.37 GiB
Продолжительность :01:31:53.240
Общий поток :2 131 Kbps
Программа кодирования :VirtualDubMod 1.5.4.1 (build 2178/release)
Библиотека кодирования :VirtualDubMod build 2178/release

Видео
Идентификатор :0
Формат :MPEG-4 Visual
Параметр BVOP формата :1
Параметр Qpel формата :No
Параметр GMC формата :0
Параметр Matrix формата :Default (H.263)
Идентификатор кодека :DX50
Продолжительность :1h 31mn 53s 240ms
Битрейт :1 740 Kbps
Ширина :720 pixels
Высота :400 pixels
Соотношение сторон :1.800
Частота кадров :25.000 fps
Глубина цвета :8 bits
Подвыборка цветности :4:2:0
Цветовое пространство :YUV
Тип развертки :Progressive
Бит/(Пиксели*Кадры) :0.242
Размер потока :1.12 GiB (82%)
Библиотека кодирования :DivX503b1328p

Аудио #1
Идентификатор :1
Формат :AC-3
Формат/Информация :Audio Coding 3
Идентификатор кодека :2000
Продолжительность :01:31:52.768
Вид битрейта :Constant
Битрейт :384 Kbps
Канал(ы) :6 channels
Расположение каналов :Front: L C R, Side: L R, LFE
Частота :48.0 KHz
Битовая глубина :16 bits
Метод сжатия :Lossy
Размер потока :252 MiB (18%)Тех. данные:
Каче
e6008064c74142d83facc5ee2fdc8348b767dc05Золотая речка (Вениамин Дорман, приключения, 1977) [DVDRip, Не требуется] Золотая речка (Вениамин Дорман, приключения, 1977) [DVDRip, Не требуется] " />

Аплоадер: Админ, дата: 28-11-2012, 21:59, торрент скачан: 359 раз

Понравилась раздача? Посмотрите эти:
  • Ошибка резидента (2 части из 2) (Вениамин Дорман, детектив, 1968) [DVDRip, ...
  • Судьба резидента (2 части из 2) (Вениамин Дорман, детектив, приключения, 19 ...
  • Возвращение резидента (2 части из 2) (Вениамин Дорман, триллер, 1982) [DVDR ...
  • Конец операции «Резидент» (2 части из 2) (Вениамин Дорман, боевик, приключе ...
  • Каштанка (Роман Балаян, приключения, 1975) [DVDRip, Не требуется]
  • Где это видано, где это слыхано (Валентин Горлов, короткометражка, комедия, ...
  • Штрафной удар (Вениамин Дорман, комедия, спорт, 1963) [DVDRip, Не требуется ...
  • Тачанка с Юга (Евгений Шерстобитов, приключения, 1977) [DVDRip, Не требуетс ...
  • Старшина (Николай Кошелев, драма, 1979) [DVDRip, Не требуется]
  • Путевка в Жизнь (Николай Экк, драма, 1931) [DVDRip, Не требуется]
  • Легкая жизнь (Вениамин Дорман, комедия, 1964) [DVDRip, Не требуется]
  • Левша (Сергей Овчаров, драма, комедия, 1986) [DVDRip, Не требуется]
  • Черная чайка (Григорий Колтунов, приключения, 1962) [DVDRip, Не требуется]
  • Трактир на Пятницкой (Александр Файнциммер, криминал, детектив, 1977) [DVDR ...
  • Небывальщина (Сергей Овчаров, комедия, 1983) [DVDRip, Не требуется]
  • Степь (2 части из 2) (Сергей Бондарчук, драма, история, 1977) [DVDRip, Не т ...
  • Танкер «Дербент» (Александр Файнциммер, приключения, 1940) [DVDRip, Не треб ...
  • Славный малый (Борис Барнет, военный, 1943) [DVDRip, Не требуется]
  • Приехали на конкурс повара (Нерсес Оганесян, комедия, 1977) [DVDRip, Не тре ...
  • Приключения маленького папы (Дмитрий Крупко, детский, комедия, 1979) [DVDRi ...
  • Солдатки (Валентин Козачков, драма, 1977) [DVDRip, Не требуется]
  • Пропавшая экспедиция / Золотая речка (Вениамин Дорман, приключения, драма, ...
  • Пропавшая экспедиция (2 части из 2) (Вениамин Дорман, драма, детектив, прик ...
  • Р.В.С. (Алексей Мороз, военный, 1977) [DVDRip, (2х)Оригинал (русский)]
  • Дом на дюнах (Дмитрий Салынский, приключения, 1984) [DVDRip, Не требуется]
  • Информация
    Посетители, находящиеся в группе Гости, не могут оставлять комментарии к данной публикации.