вход на сайт

Имя пользователя :
Пароль :

Восстановление пароля Регистрация
Пограничный пес Алый (Юлий Файт, драма, 1979) [DVDRip, Не требуется]
Рейтинг:
(голосов: 1)



[img]{THEME}/images/logopost.png[/img]



Пограничный пес Алый

Год выпуска: 1979
Страна: СССР
Производство: Студия Горького
Жанр: драма

Режиссёр: Юлий Файт
В ролях: Владимир Дубровский, Виктор Косых, Василий Куприянов, Владимир Герасимов, Нартай Бегалин, Яна Друзь, Александр Казаков, Игорь Косухин, Александр Куренной, Артур Нищенкин

Перевод: Не требуется
Субтитры: Отсутствуют

Описание:
Новобранец Алексей Кошкин, пришедший служить на границу, получил в напарники… щенка. Назвал пса Алый, и началась для них настоящая военная служба, во время которой Алый спас жизнь своего хозяина…


Дополнительно:
MediaInfo ▼Text
Общее
Полное имя :K:2. РАЗДАЧАПограничный пес АлыйPogranichnij.pes.Alij.avi
Формат :AVI
Размер :1.09 GiB
Продолжительность :01:03:12.160
Общий поток :2 479 Kbps
Программа кодирования :VirtualDubMod 1.5.10.2 (build 2540/release)

Видео
Идентификатор :0
Формат :MPEG-4 Visual
Параметр BVOP формата :1
Параметр Qpel формата :No
Параметр GMC формата :0
Параметр Matrix формата :Default (H.263)
Идентификатор кодека :DX50
Продолжительность :1h 3mn 12s 160ms
Битрейт :2 278 Kbps
Ширина :704 pixels
Высота :336 pixels
Соотношение сторон :2.095
Частота кадров :25.000 fps
Глубина цвета :8 bits
Подвыборка цветности :4:2:0
Цветовое пространство :YUV
Тип развертки :Progressive
Бит/(Пиксели*Кадры) :0.385
Размер потока :1.01 GiB (92%)
Библиотека кодирования :DivX503b1328p

Аудио #1
Идентификатор :1
Формат :AC-3
Формат/Информация :Audio Coding 3
Идентификатор кодека :2000
Продолжительность :01:03:12.128
Вид битрейта :Constant
Битрейт :192 Kbps
Канал(ы) :2 channels
Расположение каналов :Front: L R
Частота :48.0 KHz
Битовая глубина :16 bits
Метод сжатия :Lossy
Размер потока :86.8 MiB (8%)Тех. данные:
Качество:DVDRip
Продолжительность:01:03:10 час

Формат: AVI
Видео кодек: DivX
Аудио кодек: AC3
Видео: 704 x 336 (
e9e7d40aef9ddd0f8860a81c3bfc3b9dada0b6eeПограничный пес Алый (Юлий Файт, драма, 1979) [DVDRip, Не требуется] Пограничный пес Алый (Юлий Файт, драма, 1979) [DVDRip, Не требуется] " />

Аплоадер: Админ, дата: 28-11-2012, 21:43, торрент скачан: 359 раз

Понравилась раздача? Посмотрите эти:
  • С любимыми не расставайтесь (Павел Арсенов, драма, мелодрама, 1979) [DVDRip ...
  • Нейтральные воды (Владимир Беренштейн, драма, 1968) [DVDRip, Не требуется]
  • История кавалера де Грие и Манон Леско (Роман Виктюк, драма, мелодрама, 197 ...
  • Дикая собака Динго (Юлий Карасик, драма, 1962) [DVDRip, Не требуется]
  • Старшина (Николай Кошелев, драма, 1979) [DVDRip, Не требуется]
  • Примите телеграмму в долг (Леонид Нечаев, драма, 1979) [DVDRip, Не требуетс ...
  • Поезд идёт на восток (Цветной) (Юлий Райзман, мелодрама, комедия, 1947) [DV ...
  • Завтрак на траве (Николай Александрович, детский, комедия, 1979) [DVDRip, Н ...
  • Осенний марафон (Георгий Данелия, драма, мелодрама, комедия, 1979) [DVDRip, ...
  • Мистер Икс (Юлий Хмельницкий, мюзикл, мелодрама, комедия, 1958) [DVDRip, Не ...
  • Комиссар (Александр Аскольдов, драма, военный, 1967) [DVDRip, Не требуется] ...
  • Пограничный Пёс Алый (Юлий Файт, Приключения, 1979) [DVDRip, Оригинал]
  • Сватовство гусара (Светлана Дружинина, мюзикл, мелодрама, комедия, 1979) [D ...
  • Чайка (Юлий Карасик, драма, 1972) [DVDRip, Не требуется]
  • Печники (Виктор Храмов, драма, 1982) [DVDRip, Не требуется]
  • Бабушки надвое сказали (Валерий Харченко, Юрий Клебанов, комедия, 1979) [DV ...
  • Соловей (Надежда Кошеверова, мюзикл, семейный, 1979) [DVDRip, Не требуется] ...
  • Стакан воды (Юлий Карасик, мелодрама, комедия, история, 1979) [DVDRip, Не т ...
  • Приключения маленького папы (Дмитрий Крупко, детский, комедия, 1979) [DVDRi ...
  • Добряки (Карен Шахназаров, комедия, 1979) [DVDRip, Не требуется]
  • Информация
    Посетители, находящиеся в группе Гости, не могут оставлять комментарии к данной публикации.